<?xml version="1.0" standalone="no"?>
<!DOCTYPE svg PUBLIC "-//W3C//DTD SVG 1.1//EN" "http://www.w3.org/Graphics/SVG/1.1/DTD/svg11.dtd" >
<svg xmlns="http://www.w3.org/2000/svg">
<metadata>
<json>
<![CDATA[
{
	"fontFamily": "ralph-icons",
	"majorVersion": 1,
	"minorVersion": 0,
	"version": "Version 1.0",
	"fontId": "ralph-icons",
	"psName": "ralph-icons",
	"subFamily": "Regular",
	"fullName": "ralph-icons",
	"description": "Font generated by IcoMoon."
}
]]>
</json>
</metadata>
<defs>
<font id="ralph-icons" horiz-adv-x="1024">
<font-face units-per-em="1024" ascent="960" descent="-64" />
<missing-glyph horiz-adv-x="1024" />
<glyph unicode="&#x20;" horiz-adv-x="512" d="" />
<glyph unicode="&#xe900;" glyph-name="filter" data-tags="filter" d="M51.237 806.386c-0.012 0-0.026 0-0.040 0-28.274 0-51.195-22.921-51.195-51.195 0-0.014 0-0.028 0-0.042v0.002c0-0.012 0-0.026 0-0.040 0-28.274 22.921-51.195 51.195-51.195 0.014 0 0.028 0 0.042 0h921.495c0.012 0 0.026 0 0.040 0 28.274 0 51.195 22.921 51.195 51.195 0 0.014 0 0.028 0 0.042v-0.002c0 0.012 0 0.026 0 0.040 0 28.274-22.921 51.195-51.195 51.195-0.014 0-0.028 0-0.042 0h0.002zM204.82 499.22c-0.012 0-0.026 0-0.040 0-28.274 0-51.195-22.921-51.195-51.195 0-0.014 0-0.028 0-0.042v0.002c0-0.012 0-0.026 0-0.040 0-28.274 22.921-51.195 51.195-51.195 0.014 0 0.028 0 0.042 0h614.329c0.012 0 0.026 0 0.040 0 28.274 0 51.195 22.921 51.195 51.195 0 0.014 0 0.028 0 0.042v-0.002c0 0.012 0 0.026 0 0.040 0 28.274-22.921 51.195-51.195 51.195-0.014 0-0.028 0-0.042 0h0.002zM358.403 192.054c-0.012 0-0.026 0-0.040 0-28.274 0-51.195-22.921-51.195-51.195 0-0.014 0-0.028 0-0.042v0.002c0-0.012 0-0.026 0-0.040 0-28.274 22.921-51.195 51.195-51.195 0.014 0 0.028 0 0.042 0h307.164c0.012 0 0.026 0 0.040 0 28.274 0 51.195 22.921 51.195 51.195 0 0.014 0 0.028 0 0.042v-0.002c0 0.012 0 0.026 0 0.040 0 28.274-22.921 51.195-51.195 51.195-0.014 0-0.028 0-0.042 0h0.002z" />
<glyph unicode="&#xe901;" glyph-name="upload-cloud" data-tags="upload-cloud" d="M395.602 913.522c-217.961 0-395.579-177.727-395.579-395.688 0-108.722 44.070-207.778 115.313-279.283 8.427-8.444 20.078-13.667 32.948-13.667 12.815 0 24.421 5.179 32.838 13.557l-0.002-0.002c8.508 8.437 13.775 20.131 13.775 33.056 0 12.815-5.18 24.422-13.559 32.84l0.002-0.002c-54.574 54.778-88.258 129.875-88.258 213.501 0 167.649 134.872 302.521 302.521 302.521 111.485 0 208.354-59.871 260.955-149.133 13.687-23.212 38.551-36.983 64.912-36.983 116.234 0 209.462-93.227 209.462-209.462 0-65.349-29.576-123.214-76.148-161.679-10.365-8.6-16.917-21.484-16.917-35.899 0-11.26 3.998-21.587 10.653-29.637l-0.063 0.079c8.6-10.397 21.504-16.971 35.942-16.971 11.29 0 21.641 4.019 29.7 10.705l-0.076-0.062c67.14 55.452 109.968 139.822 109.968 233.463 0 163.688-131.824 296.323-294.447 300.884-69.923 111.851-192.683 187.862-333.94 187.862zM512.007 494.597c-0.009 0-0.019 0-0.029 0-12.856 0-24.494-5.211-32.917-13.637l-186.116-186.225c-8.41-8.421-13.612-20.049-13.612-32.892s5.202-24.471 13.612-32.892v0c8.421-8.41 20.049-13.612 32.892-13.612s24.471 5.202 32.892 13.612l106.695 106.586v-306.448c0-0.011 0-0.024 0-0.036 0-25.707 20.84-46.548 46.548-46.548 0.013 0 0.025 0 0.038 0h-0.002c0.011 0 0.024 0 0.036 0 25.707 0 46.548 20.84 46.548 46.548 0 0.013 0 0.025 0 0.038v-0.002 306.448l106.695-106.586c8.421-8.41 20.049-13.612 32.892-13.612s24.471 5.202 32.892 13.612v0c8.41 8.421 13.612 20.049 13.612 32.892s-5.202 24.471-13.612 32.892l-186.116 186.225c-8.423 8.425-20.061 13.637-32.917 13.637-0.010 0-0.021 0-0.031 0h0.001z" />
<glyph unicode="&#xe902;" glyph-name="notification" data-tags="notification" d="M819.462 959.982c-52.529 0-105.044-19.93-144.827-59.711-79.567-79.565-79.567-210.088 0-289.652 79.565-79.564 210.087-79.564 289.652 0 79.567 79.565 79.567 210.088 0 289.652-39.782 39.781-92.298 59.711-144.827 59.711zM297.168 909.072c-86.040 0-136.263 2.648-185.233-22.304-38.537-19.636-69.88-50.979-89.516-89.516-24.951-48.97-22.304-99.194-22.304-185.233v-378.869c0-86.041-2.645-136.264 22.304-185.233 19.636-38.539 50.98-69.883 89.516-89.516 48.97-24.954 99.194-22.304 185.233-22.304h378.869c86.041 0 136.263-2.646 185.233 22.304 38.538 19.634 69.883 50.978 89.516 89.516 24.95 48.97 22.304 99.192 22.304 185.233v163.83c0 28.282-22.928 51.21-51.21 51.21v0c-28.282 0-51.21-22.928-51.21-51.21v0-163.83c0-86.041-2.662-121.964-11.202-138.725-9.821-19.278-25.43-34.887-44.708-44.708-16.762-8.541-52.683-11.202-138.725-11.202h-378.869c-86.040 0-121.971 2.664-138.725 11.202-19.278 9.821-34.887 25.431-44.708 44.708-8.54 16.762-11.202 52.683-11.202 138.725v378.869c0 86.040 2.664 121.971 11.202 138.725 9.823 19.277 25.431 34.885 44.708 44.708 16.755 8.537 52.686 11.202 138.725 11.202h163.83c28.282 0 51.21 22.928 51.21 51.21v0c0 28.282-22.928 51.21-51.21 51.21v0zM819.462 858.163c26.104 0 52.199-10.091 72.413-30.305 40.427-40.426 40.427-104.401 0-144.827s-104.397-40.427-144.827 0c-40.427 40.426-40.427 104.401 0 144.827 20.214 20.214 46.31 30.305 72.413 30.305z" />
<glyph unicode="&#xe903;" glyph-name="message" data-tags="message" d="M301.848 959.89c-84.084 0-133.166 2.587-181.023-21.797-37.661-19.189-68.292-49.821-87.481-87.481-24.384-47.857-21.797-96.94-21.797-181.023v-310.242c0-46.542-0.904-72.938 6.842-101.85 18.49-69 72.53-123.045 141.535-141.535 14.705-3.94 35.417-2.803 51.805-3.519v-70.18c0-13.335-0.165-23.882 0.88-35.384 1.043-11.478 2.993-26.849 15.541-42.616 14.234-17.831 35.899-28.278 58.744-28.248 20.212 0.023 33.374 8.194 43.008 14.564s17.738 13.076 28.15 21.406l119.444 95.497c24.385 19.507 34.176 26.879 41.639 30.692 8.031 4.104 16.588 7.085 25.414 8.894 8.207 1.686 20.478 2.053 51.707 2.053h125.895c84.086 0 133.166-2.586 181.023 21.797 37.662 19.188 68.294 49.819 87.481 87.481 24.383 47.857 21.797 96.937 21.797 181.023v270.166c0 84.084 2.589 133.166-21.797 181.023-19.187 37.661-49.819 68.292-87.481 87.481-47.857 24.382-96.937 21.797-181.023 21.797zM301.848 859.798h420.302c84.086 0 119.19-2.602 135.572-10.947 18.839-9.598 34.094-24.852 43.692-43.692 8.343-16.373 10.947-51.488 10.947-135.572v-270.166c0-84.086-2.602-119.192-10.947-135.572-9.598-18.84-24.852-34.094-43.692-43.692-16.381-8.347-51.486-10.947-135.572-10.947h-125.895c-31.228 0-50.172 0.345-71.842-4.105-17.677-3.624-34.767-9.583-50.827-17.79-19.691-10.060-34.258-22.228-58.647-41.737l-103.121-82.496v96.083c-0.002 27.638-22.407 50.042-50.045 50.046v0c-46.541 0-66.673 0.937-75.948 3.421-34.616 9.276-61.492 36.153-70.767 70.767-2.484 9.272-3.421 29.406-3.421 75.948v310.242c0 84.084 2.604 119.199 10.947 135.572 9.599 18.839 24.853 34.093 43.692 43.692 16.374 8.343 51.488 10.947 135.572 10.947zM512 759.708c-27.639 0-50.046-22.407-50.046-50.046v0-175.158c0-27.639 22.407-50.046 50.046-50.046v0c27.639 0 50.046 22.407 50.046 50.046v0 175.158c0 27.639-22.407 50.046-50.046 50.046v0zM512 409.39c-27.639 0-50.046-22.407-50.046-50.046v0c0-27.639 22.407-50.046 50.046-50.046v0h0.49c27.639 0 50.046 22.407 50.046 50.046v0c0 27.639-22.407 50.046-50.046 50.046v0z" />
<glyph unicode="&#xe904;" glyph-name="calendar" data-tags="calendar" d="M325.85 959.987c-25.704 0-46.541-20.838-46.541-46.541v0-47.177c-53.95-0.080-95.138-1.322-131.078-19.634-35.023-17.845-63.51-46.332-81.355-81.355-22.677-44.506-20.27-90.151-20.27-168.346v-390.869c0-78.197-2.404-123.842 20.27-168.346 17.845-35.026 46.333-63.512 81.355-81.355 44.506-22.679 90.151-20.27 168.346-20.27h390.869c78.197 0 123.841-2.405 168.346 20.27 35.024 17.844 63.512 46.331 81.355 81.355 22.676 44.506 20.27 90.149 20.27 168.346v390.869c0 78.196 2.407 123.841-20.27 168.346-17.843 35.023-46.331 63.51-81.355 81.355-35.939 18.31-77.127 19.555-131.078 19.634v47.177c0 25.704-20.838 46.541-46.541 46.541v0c-25.704 0-46.541-20.838-46.541-46.541v0-46.541h-279.245v46.541c0 25.704-20.838 46.541-46.541 46.541v0zM372.391 773.825h279.245v-46.541c0-25.704 20.838-46.541 46.541-46.541v0c25.704 0 46.541 20.838 46.541 46.541v0 43.541c37.832-1.177 78.078-1.714 88.81-7.181 17.519-8.926 31.706-23.112 40.632-40.632 7.759-15.226 10.18-47.883 10.18-126.078v-9.272h-744.653v9.272c0 78.196 2.422 110.851 10.18 126.078 8.927 17.519 23.113 31.705 40.632 40.632 10.726 5.465 50.976 6.004 88.81 7.181v-43.541c0-25.704 20.838-46.541 46.541-46.541v0c25.704 0 46.541 20.838 46.541 46.541v0zM139.687 494.58h744.653v-288.516c0-78.197-2.419-110.845-10.18-126.078-8.926-17.52-23.112-31.706-40.632-40.632-15.234-7.762-47.881-10.18-126.078-10.18h-390.869c-78.196 0-110.851 2.422-126.078 10.18-17.52 8.926-31.706 23.113-40.632 40.632-7.761 15.234-10.18 47.881-10.18 126.078z" />
<glyph unicode="&#xe905;" glyph-name="activity" data-tags="activity" d="M372.356 913.486c-0.007 0-0.015 0-0.025 0-20.438 0-37.8-13.172-44.059-31.49l-0.097-0.327-128.997-387.083h-152.633c-25.706 0-46.545-20.839-46.545-46.545v0c0-25.706 20.839-46.545 46.545-46.545v0h186.178c0.007 0 0.015 0 0.025 0 20.439 0 37.8 13.172 44.059 31.49l0.097 0.327 95.453 286.358 235.086-705.259c6.335-18.684 23.716-31.891 44.181-31.891s37.846 13.207 44.085 31.563l0.096 0.328 128.997 387.083h152.633c25.706 0 46.545 20.839 46.545 46.545v0c0 25.706-20.839 46.545-46.545 46.545v0h-186.178c-0.007 0-0.015 0-0.025 0-20.438 0-37.8-13.172-44.059-31.49l-0.097-0.327-95.453-286.358-235.086 705.259c-6.356 18.646-23.719 31.818-44.156 31.818-0.008 0-0.017 0-0.025 0h0.001z" />
<glyph unicode="&#xe906;" glyph-name="building" data-tags="building" d="M317.436 959.866c-57.341 0-93.077 2.667-131.080-16.697-28.893-14.721-52.469-38.297-67.19-67.19-19.364-38.003-16.697-73.74-16.697-131.080v-706.492h-51.192c-28.273 0-51.192-22.919-51.192-51.192v0c0-28.273 22.919-51.192 51.192-51.192v0h921.459c28.273 0 51.192 22.919 51.192 51.192v0c0 28.273-22.919 51.192-51.192 51.192v0h-51.192v706.492c0 57.34 2.668 93.076-16.697 131.080-14.721 28.899-38.301 52.47-67.19 67.19-38.005 19.366-73.74 16.697-131.080 16.697zM317.436 857.481h389.141c57.34 0 78.792-2.647 84.587-5.599 9.639-4.911 17.49-12.765 22.397-22.397 2.955-5.798 5.599-27.247 5.599-84.587v-706.492h-102.384v225.266c0 28.673 2.587 50.136-11.198 77.188-9.811 19.253-25.44 34.883-44.693 44.693-27.052 13.785-48.516 11.198-77.188 11.198h-143.378c-28.671 0-50.134 2.587-77.188-11.198-19.244-9.809-34.878-25.427-44.693-44.693-13.784-27.052-11.198-48.516-11.198-77.188v-225.266h-102.384v706.492c0 57.34 2.645 78.789 5.599 84.587 4.91 9.638 12.759 17.486 22.397 22.397 5.799 2.955 27.246 5.599 84.587 5.599zM384.026 729.501c-41.803 0-76.788-34.986-76.788-76.788s34.986-76.788 76.788-76.788c41.803 0 76.788 34.986 76.788 76.788s-34.986 76.788-76.788 76.788zM639.986 729.501c-41.805 0-76.788-34.981-76.788-76.788s34.984-76.788 76.788-76.788c41.805 0 76.788 34.981 76.788 76.788s-34.984 76.788-76.788 76.788zM409.622 294.367c-5.152-2.626 2.025 0 30.695 0h143.378c28.673 0 35.848-2.626 30.695 0-2.626 5.152 0-2.023 0-30.695v-225.266h-204.769v225.266c0 28.673 2.625 35.847 0 30.695z" />
<glyph unicode="&#xe907;" glyph-name="home-line" data-tags="home-line" d="M486.153 956.557c-23.172-6.274-35.601-18.046-52.951-31.539l-334.966-260.508c-22.388-17.414-37.439-28.221-51.021-46.585-10.714-14.487-18.676-30.87-23.533-48.224-6.157-21.996-5.498-40.501-5.498-68.864v-357.246c0-55.312-2.574-89.88 16.107-126.54 14.199-27.868 36.946-50.514 64.814-64.717 0-0.014 0-0.032 0-0.050s0-0.034 0-0.052v0.003c36.657-18.668 71.132-16.104 126.444-16.104h572.905c55.312 0 89.786-2.565 126.444 16.107 0 0.014 0 0.032 0 0.050s0 0.034 0 0.052v-0.003c27.865 14.203 50.614 36.844 64.814 64.717 18.681 36.659 16.107 71.226 16.107 126.538v357.246c0 28.363 0.656 46.871-5.498 68.864-4.859 17.354-12.828 33.744-23.533 48.224-13.583 18.367-28.631 29.172-51.021 46.585l-334.966 260.508c-17.35 13.495-29.779 25.266-52.951 31.539-16.903 4.577-34.796 4.576-51.697 0zM512.001 861.17c-4.011 1.086 0.883-0.589 18.229-14.082l334.87-260.508c22.39-17.413 29.766-23.951 32.311-27.392 3.576-4.837 6.193-10.324 7.812-16.107 1.154-4.126 1.833-13.881 1.833-42.244v-357.246c0-55.312-2.553-76.102-5.401-81.692-4.733-9.292-12.304-16.865-21.604-21.604-5.622-2.845-26.348-5.401-81.595-5.401h-572.905c-55.247 0-75.971 2.555-81.595 5.401h-0.096c-9.271 4.742-16.782 12.328-21.508 21.604-2.849 5.59-5.401 26.38-5.401 81.692v357.246c0 28.363 0.679 38.121 1.833 42.244 1.618 5.784 4.24 11.277 7.812 16.107 2.547 3.443 9.923 9.978 32.311 27.392l334.87 260.508c17.349 13.493 22.243 15.168 18.229 14.082zM314.474 232.42c-27.272 0-49.382-22.109-49.382-49.382v0c0-27.272 22.109-49.382 49.382-49.382v0h395.054c27.272 0 49.382 22.109 49.382 49.382v0c0 27.272-22.109 49.382-49.382 49.382v0z" />
<glyph unicode="&#xe908;" glyph-name="marker-pin" data-tags="marker-pin" d="M511.989 959.983c-179.387 0-325.807-146.42-325.807-325.807 0-111.75 62.784-193.952 126.451-260.264s129.349-122.702 157.722-179.449c7.813-15.378 23.514-25.733 41.635-25.733s33.823 10.354 41.513 25.468l0.122 0.264c28.373 56.746 94.055 113.136 157.722 179.449s126.451 148.514 126.451 260.264c0 179.387-146.421 325.807-325.807 325.807zM511.989 866.895c129.078 0 232.719-103.641 232.719-232.719 0-77.389-41.941-134.87-100.452-195.812-43.386-45.189-91.463-92.29-132.269-145.722-40.806 53.433-88.883 100.534-132.269 145.722-58.511 60.942-100.452 118.422-100.452 195.812 0 129.079 103.641 232.719 232.719 232.719zM511.989 727.264c-50.86 0-93.088-42.229-93.088-93.088s42.228-93.088 93.088-93.088c50.86 0 93.088 42.229 93.088 93.088s-42.228 93.088-93.088 93.088zM202.999 385.002c-4.991 1.994-10.776 3.15-16.83 3.15-6.806 0-13.271-1.461-19.098-4.086l0.294 0.118c-47.137-20.793-87.001-46.079-116.996-77.542s-50.362-71.181-50.362-114.632c0-42.894 19.832-82.136 49.18-113.36s68.479-56.41 114.632-77.179c92.307-41.538 213.983-65.453 348.171-65.453 134.186 0 255.864 23.914 348.171 65.453 46.153 20.769 85.284 45.955 114.632 77.179s49.18 70.467 49.18 113.36c0 43.452-20.367 83.169-50.362 114.632s-69.858 56.749-116.996 77.542c-5.525 2.498-11.979 3.953-18.771 3.953-18.911 0-35.189-11.279-42.472-27.476l-0.118-0.294c-2.507-5.534-3.968-11.999-3.968-18.805 0-18.882 11.244-35.138 27.401-42.438l0.293-0.118c39.033-17.218 68.992-37.462 87.27-56.634s24.635-35.224 24.635-50.362c0-14.945-6.151-30.743-23.908-49.634s-46.922-38.865-84.997-55.998c-76.149-34.267-187.123-57.271-309.99-57.271s-233.841 23.004-309.99 57.271c-38.075 17.133-67.24 37.106-84.997 55.998s-23.908 34.69-23.908 49.634c0 15.138 6.357 31.189 24.635 50.362s48.237 39.416 87.27 56.634c16.45 7.418 27.695 23.674 27.695 42.557 0 6.807-1.461 13.272-4.087 19.099l0.118-0.294c-5.059 11.307-14.156 20.048-25.412 24.525l-0.314 0.11z" />
<glyph unicode="&#xe909;" glyph-name="users" data-tags="users" d="M213.333 362.669c-56.562 0-110.837-22.501-150.833-62.5-39.997-39.994-62.5-94.269-62.5-150.833v-85.333c0-23.564 19.103-42.667 42.667-42.667v0c23.564 0 42.667 19.103 42.667 42.667v0 85.333c0 33.966 13.485 66.486 37.5 90.5 24.016 24.018 56.535 37.5 90.5 37.5h341.333c33.967 0 66.487-13.483 90.5-37.5 24.017-24.013 37.5-56.533 37.5-90.5v-85.333c0-23.564 19.103-42.667 42.667-42.667v0c23.564 0 42.667 19.103 42.667 42.667v0 85.333c0 56.563-22.5 110.838-62.5 150.833-39.995 40-94.27 62.5-150.833 62.5zM384 874.669c-117.315 0-213.333-96.018-213.333-213.333s96.018-213.333 213.333-213.333c117.314 0 213.333 96.018 213.333 213.333s-96.019 213.333-213.333 213.333zM384 789.335c71.196 0 128-56.803 128-128s-56.804-128-128-128c-71.198 0-128 56.802-128 128s56.802 128 128 128zM864 355.752c-3.211 0.866-6.898 1.364-10.702 1.364-19.754 0-36.373-13.425-41.231-31.649l-0.068-0.298c-0.863-3.205-1.359-6.886-1.359-10.682 0-19.783 13.464-36.421 31.728-41.251l0.298-0.067c27.47-7.094 51.788-23.081 69.167-45.5 17.38-22.422 26.811-49.96 26.833-78.333v-85.333c0-23.564 19.103-42.667 42.667-42.667v0c23.564 0 42.667 19.103 42.667 42.667v0 85.333c-0.037 47.258-15.794 93.229-44.75 130.583-28.958 37.357-69.495 64.017-115.25 75.833zM693.25 867.835c-3.17 0.844-6.81 1.328-10.563 1.328-19.832 0-36.504-13.531-41.287-31.865l-0.066-0.297c-0.834-3.153-1.313-6.773-1.313-10.505 0-19.797 13.483-36.444 31.766-41.262l0.297-0.067c27.539-7.051 51.902-23.126 69.333-45.583s26.917-49.988 26.917-78.417c0-28.428-9.485-56.043-26.917-78.5s-41.794-38.532-69.333-45.583c-18.591-4.877-32.083-21.529-32.083-41.333 0-3.76 0.486-7.407 1.4-10.881l-0.066 0.297c4.877-18.591 21.529-32.083 41.333-32.083 3.76 0 7.407 0.486 10.881 1.4l-0.297-0.066c45.882 11.748 86.543 38.502 115.583 75.917s44.833 83.471 44.833 130.833c0 47.362-15.792 93.336-44.833 130.75s-69.702 64.169-115.583 75.917z" />
<glyph unicode="&#xe90a;" glyph-name="signout" data-tags="signout" d="M297.060 959.903c-86.001 0-136.162 2.626-185.11-22.314-38.519-19.627-69.869-50.978-89.496-89.496-24.94-48.949-22.314-99.11-22.314-185.11v-429.965c0-85.999-2.626-136.161 22.314-185.11 19.628-38.52 50.981-69.87 89.496-89.496 48.949-24.942 99.11-22.314 185.11-22.314h61.424c0.012 0 0.026 0 0.040 0 28.269 0 51.187 22.917 51.187 51.187 0 0.014 0 0.028 0 0.042v-0.002c0 0.012 0 0.026 0 0.040 0 28.269-22.917 51.187-51.187 51.187-0.014 0-0.028 0-0.042 0h-61.422c-86.001 0-121.815 2.624-138.563 11.157-19.272 9.82-34.931 25.481-44.748 44.748-8.534 16.75-11.157 52.564-11.157 138.563v429.965c0 86.001 2.624 121.815 11.157 138.563 9.818 19.269 25.479 34.93 44.748 44.748 16.747 8.533 52.563 11.157 138.563 11.157h61.424c0.012 0 0.026 0 0.040 0 28.269 0 51.187 22.917 51.187 51.187 0 0.014 0 0.028 0 0.042v-0.002c0 0.012 0 0.026 0 0.040 0 28.269-22.917 51.187-51.187 51.187-0.014 0-0.028 0-0.042 0h0.002zM716.828 755.117c-0.010 0-0.021 0-0.032 0-14.137 0-26.934-5.731-36.198-14.996v0c-9.249-9.261-14.968-22.048-14.968-36.17s5.719-26.91 14.969-36.171l168.434-168.555h-490.549c-0.012 0-0.026 0-0.040 0-28.269 0-51.187-22.917-51.187-51.187 0-0.014 0-0.028 0-0.042v0.002c0-0.012 0-0.026 0-0.040 0-28.269 22.917-51.187 51.187-51.187 0.014 0 0.028 0 0.042 0h490.546l-168.435-168.555c-9.249-9.261-14.968-22.048-14.968-36.17s5.719-26.91 14.969-36.17v0c9.261-9.249 22.048-14.968 36.17-14.968s26.91 5.719 36.17 14.969v0l256.011 255.892c5.36 5.664 9.451 12.585 11.782 20.272l0.095 0.363c0.524 1.857 0.986 4.133 1.291 6.459l0.028 0.259c0.788 2.537 1.421 5.548 1.777 8.641l0.023 0.238c-0.379 3.331-1.012 6.34-1.895 9.24l0.095-0.363c-0.334 2.585-0.796 4.861-1.404 7.078l0.084-0.36c-2.426 8.049-6.517 14.97-11.9 20.658l0.023-0.024-256.011 255.892c-9.243 9.244-22.006 14.971-36.106 14.996h-0.004z" />
<glyph unicode="&#xe90b;" glyph-name="cross" data-tags="cross" d="M73.143 960c-20.197-0.003-38.48-8.192-51.714-21.429v0c-13.233-13.236-21.418-31.519-21.418-51.714s8.185-38.479 21.418-51.714l387.143-387.143-387.143-387.143c-13.233-13.236-21.418-31.519-21.418-51.714s8.185-38.479 21.418-51.714v0c13.236-13.233 31.519-21.418 51.714-21.418s38.479 8.185 51.714 21.418l387.143 387.143 387.143-387.143c13.236-13.233 31.519-21.418 51.714-21.418s38.479 8.185 51.714 21.418v0c13.233 13.236 21.418 31.519 21.418 51.714s-8.185 38.479-21.418 51.714l-387.143 387.143 387.143 387.143c13.233 13.236 21.418 31.519 21.418 51.714s-8.185 38.479-21.418 51.714v0c-13.236 13.233-31.519 21.418-51.714 21.418s-38.479-8.185-51.714-21.418l-387.143-387.143-387.143 387.143c-13.234 13.237-31.518 21.425-51.714 21.429h-0.001z" />
<glyph unicode="&#xe90c;" glyph-name="chevron" data-tags="chevron" d="M85.325 746.662c-23.563-0.004-44.894-9.557-60.334-25v0c-15.439-15.442-24.988-36.773-24.988-60.334s9.549-44.893 24.988-60.334l426.675-426.675c15.443-15.437 36.774-24.984 60.334-24.984s44.892 9.548 60.334 24.984l426.675 426.675c15.439 15.442 24.988 36.773 24.988 60.334s-9.549 44.893-24.988 60.334v0c-15.442 15.439-36.773 24.988-60.334 24.988s-44.892-9.549-60.334-24.988l-366.34-366.34-366.34 366.34c-15.44 15.444-36.771 24.997-60.334 25h-0.001z" />
<glyph unicode="&#xe90d;" glyph-name="edit" data-tags="edit" d="M840.34 959.887c-47.148 0-94.295-17.762-129.989-53.459l-634.074-634.187c-14.13-14.127-23.755-23.16-32.75-36.802-7.141-10.83-12.77-22.647-16.769-35.001-5.037-15.554-6.122-28.65-8.328-48.507l-18.12-162.514c-0.186-1.587-0.291-3.425-0.291-5.288 0-26.523 21.5-48.024 48.024-48.024 1.899 0 3.771 0.11 5.613 0.324l-0.224-0.021 162.514 18.007c19.851 2.206 32.953 3.296 48.507 8.328 12.329 3.995 24.042 9.726 34.889 16.882 13.645 9 22.79 18.517 36.915 32.638l634.187 634.187c71.392 71.39 71.392 188.587 0 259.977-35.696 35.696-82.953 53.459-130.101 53.459zM840.455 864.562c22.369 0 44.667-8.765 62.012-26.11 34.691-34.69 34.691-89.447 0-124.136l-634.189-634.187c-14.129-14.125-19.081-18.629-21.721-20.371-3.599-2.375-7.569-4.287-11.705-5.627-3.005-0.972-9.738-2.070-29.599-4.277l-102.753-11.367 11.367 102.865c2.206 19.857 3.304 26.486 4.277 29.487 1.331 4.115 3.239 8.083 5.627 11.705 1.742 2.643 6.246 7.713 20.371 21.834l634.187 634.074c17.342 17.343 39.755 26.11 62.124 26.11z" />
<glyph unicode="&#xe90e;" glyph-name="arrow-right" data-tags="arrow-right" d="M511.937 959.908c-0.012 0-0.025 0-0.040 0-17.674 0-33.675-7.165-45.255-18.748v0c-11.562-11.577-18.714-27.564-18.714-45.22s7.151-33.643 18.714-45.22v0l338.665-338.665h-741.374c-35.299-0.057-63.893-28.686-63.893-63.994 0-0.018 0-0.034 0-0.052v0.003c0-0.015 0-0.033 0-0.049 0-35.308 28.595-63.937 63.887-63.994h741.38l-338.665-338.665c-11.562-11.577-18.714-27.564-18.714-45.22s7.151-33.643 18.714-45.22v0c11.585-11.607 27.602-18.789 45.295-18.789s33.711 7.181 45.294 18.787l448.006 447.856c11.583 11.58 18.748 27.581 18.748 45.255 0 0.013 0 0.028 0 0.042v-0.003c-0.033 8.831-1.849 17.23-5.108 24.866l0.159-0.418c-3.364 8.107-8.029 15.031-13.803 20.852l-448 447.85c-11.58 11.583-27.581 18.748-45.255 18.748-0.013 0-0.028 0-0.042 0h0.001z" />
<glyph unicode="&#xe90f;" glyph-name="trash" data-tags="trash" d="M474.813 959.872c-52.129 0-84.672 2.442-119.221-15.162-26.266-13.383-47.701-34.708-61.083-60.974-16.219-31.833-14.18-64.633-13.962-109.95h-187.394c-0.011 0-0.024 0-0.036 0-25.703 0-46.54-20.837-46.54-46.54 0-0.013 0-0.025 0-0.038v0.002c0-0.011 0-0.024 0-0.036 0-25.703 20.837-46.54 46.54-46.54 0.013 0 0.025 0 0.038 0h46.574v-474.704c0-78.192-2.391-123.693 20.288-168.197 17.845-35.031 46.352-63.528 81.372-81.372 44.506-22.678 90.003-20.288 168.197-20.288h204.847c78.197 0 123.692-2.388 168.197 20.288 35.018 17.844 63.529 46.334 81.372 81.372 22.68 44.505 20.288 90.005 20.288 168.197v474.704h46.576c0.011 0 0.024 0 0.036 0 25.703 0 46.54 20.837 46.54 46.54 0 0.013 0 0.025 0 0.038v-0.002c0 0.011 0 0.024 0 0.036 0 25.703-20.837 46.54-46.54 46.54-0.013 0-0.025 0-0.038 0h-187.392c0.218 45.312 2.251 78.012-13.962 109.841 0 0.016 0 0.035 0 0.055s0 0.038 0 0.058v-0.003c-13.385 26.267-34.819 47.591-61.083 60.974-34.549 17.605-67.093 15.162-119.221 15.162zM474.813 866.829h74.391c52.128 0 71.739-2.332 77.008-5.018 8.739-4.454 15.822-11.669 20.288-20.397 2.359-4.631 3.989-28.578 4.472-67.628h-277.928c0.483 39.050 2.113 62.997 4.472 67.628 4.465 8.762 11.526 15.933 20.288 20.397 5.272 2.687 24.879 5.018 77.008 5.018zM232.771 680.634h558.475v-474.704c0-78.192-2.388-110.766-10.144-125.984-8.919-17.515-23.163-31.757-40.686-40.686-15.23-7.761-47.787-10.144-125.984-10.144h-204.847c-78.194 0-110.757 2.386-125.984 10.144-17.522 8.929-31.76 23.165-40.686 40.686-7.755 15.22-10.144 47.792-10.144 125.984zM418.966 517.782c-0.011 0-0.024 0-0.036 0-25.703 0-46.54-20.837-46.54-46.54 0-0.013 0-0.025 0-0.038v0.002-232.661c0-0.011 0-0.024 0-0.036 0-25.703 20.837-46.54 46.54-46.54 0.013 0 0.025 0 0.038 0h-0.002c25.671 0.041 46.467 20.862 46.467 46.54 0 0.013 0 0.025 0 0.038v-0.002 232.661c0 0.011 0 0.024 0 0.036 0 25.678-20.796 46.498-46.462 46.54h-0.004zM605.051 517.782c-25.672-0.041-46.467-20.862-46.467-46.54 0-0.013 0-0.025 0-0.038v0.002-232.661c0-0.011 0-0.024 0-0.036 0-25.678 20.796-46.498 46.462-46.54h0.004c0.011 0 0.024 0 0.036 0 25.703 0 46.54 20.837 46.54 46.54 0 0.013 0 0.025 0 0.038v-0.002 232.661c0 0.011 0 0.024 0 0.036 0 25.703-20.837 46.54-46.54 46.54-0.013 0-0.025 0-0.038 0h0.002z" />
<glyph unicode="&#xe910;" glyph-name="athletics" data-tags="athletics" d="M369.766 817.775c-204.216 0-369.767-165.55-369.767-369.767 0-204.22 165.55-369.765 369.767-369.765h199.105v56.886h-199.105c-172.799 0-312.879 140.079-312.879 312.877s140.081 312.879 312.879 312.879h284.437c172.8 0 312.878-140.081 312.878-312.879s-140.079-312.877-312.878-312.877h-28.446v-56.886h28.446c204.221 0 369.766 165.545 369.766 369.765 0 204.216-165.545 369.767-369.766 369.767h-284.437zM625.758 192.017h28.446c141.38 0 255.992 114.608 255.992 255.991 0 141.381-114.613 255.992-255.992 255.992h-284.437c-141.381 0-255.992-114.612-255.992-255.992 0-141.384 114.612-255.991 255.992-255.991h199.105v56.886h-199.105c-109.963 0-199.105 89.141-199.105 199.105s89.142 199.105 199.105 199.105h284.437c109.964 0 199.106-89.142 199.106-199.105s-89.141-199.105-199.106-199.105h-28.446v-56.886zM625.758 305.79h28.446c78.544 0 142.219 63.675 142.219 142.218s-63.675 142.218-142.219 142.218h-284.437c-78.545 0-142.218-63.674-142.218-142.218s63.673-142.218 142.218-142.218h199.105v56.886h-199.105c-47.128 0-85.33 38.204-85.33 85.331 0 47.126 38.203 85.33 85.33 85.33h284.437c47.123 0 85.327-38.205 85.327-85.33 0-47.128-38.204-85.331-85.327-85.331h-28.446v-56.886z" />
<glyph unicode="&#xe911;" glyph-name="baseball" data-tags="baseball" d="M772.887 913.695c55.765 60.057 150.584 61.942 208.716 4.148 58.136-57.794 56.236-152.060-4.173-207.499l-220.184-202.062-629.769-486.967 28.71-28.543c13.059-12.984 13.059-34.032 0-47.011-13.058-12.984-34.229-12.984-47.287 0l-99.076 98.496c-13.058 12.984-13.058 34.032 0 47.016 13.058 12.979 34.229 12.979 47.288 0l22.709-22.578 489.823 626.1 203.243 218.901zM934.316 870.832c-31.272 31.093-82.287 30.079-112.289-2.232l-201.333-216.839-326.428-417.25 419.696 324.528 218.11 200.159c32.501 29.826 33.52 80.541 2.243 111.635zM824.491 409.891c-88.363 0-159.995-71.632-159.995-159.995s71.632-159.995 159.995-159.995c88.363 0 159.995 71.632 159.995 159.995s-71.632 159.995-159.995 159.995zM728.493 249.896c0 53.016 42.981 95.997 95.997 95.997s95.997-42.981 95.997-95.997c0-53.016-42.981-95.997-95.997-95.997s-95.997 42.981-95.997 95.997z" />
<glyph unicode="&#xe912;" glyph-name="building1" data-tags="building1" d="M799.206 959.994h-574.429v-149.85h-199.8v-874.129h974.027v874.129h-199.798v149.85zM274.728 260.694v-249.753h-174.826v724.278h824.177v-724.278h-174.827v249.753h-474.523zM349.654 185.769h124.875v-174.827h-124.875v174.827zM549.453 185.769h124.873v-174.827h-124.873v174.827zM724.281 810.144h-424.579v74.925h424.579v-74.925zM349.654 610.344h-174.826v-224.777h174.826v224.777zM249.753 460.493v74.926h24.976v-74.926h-24.976zM424.579 610.344h174.823v-224.777h-174.823v224.777zM499.504 535.419v-74.926h24.972v74.926h-24.972zM849.154 610.344h-174.827v-224.777h174.827v224.777zM749.252 460.493v74.926h24.977v-74.926h-24.977z" />
<glyph unicode="&#xe913;" glyph-name="cricket" data-tags="cricket" d="M235.815 326.685c9.452-11.633 15.118-26.464 15.118-42.618 0-18.672-7.567-35.578-19.798-47.81s-29.135-19.798-47.808-19.798c-16.163 0-30.998 5.668-42.628 15.13-0.763 0.712-1.55 1.382-2.361 2.007-0.966 0.86-1.905 1.751-2.819 2.662-12.233 12.232-19.798 29.137-19.798 47.81s7.566 35.573 19.798 47.804c12.233 12.237 29.134 19.798 47.808 19.798s35.575-7.562 47.808-19.798c0.911-0.911 1.797-1.848 2.655-2.811 0.632-0.814 1.308-1.608 2.026-2.376zM258.745 395.035c-21.493 14.633-47.457 23.193-75.418 23.193-37.044 0-70.584-15.017-94.863-39.3-24.28-24.278-39.298-57.818-39.298-94.86 0-27.964 8.558-53.927 23.195-75.421l-62.616-62.616c-12.994-12.995-12.994-34.062 0-47.057l153.228-153.231c12.995-12.989 34.063-12.989 47.057 0l575.958 575.967c12.995 12.995 12.995 34.063 0 47.057-2.683 2.683-4.618 5.559-5.821 8.463-1.3 3.137-1.951 6.649-1.951 10.307 0 3.546 0.65 6.992 1.946 10.121 1.126 2.705 2.688 5.255 4.695 7.528 0.384 0.351 0.763 0.711 1.132 1.083l214.025 214.113c15.969 16.004 23.955 36.9 23.955 57.755s-7.987 41.752-23.961 57.753l-0.128 0.131c-7.788 7.759-16.834 13.651-26.541 17.661-10.143 4.188-20.766 6.287-31.231 6.287-10.445 0-21.063-2.099-31.195-6.289-8.76-3.623-16.992-8.78-24.237-15.458-0.84-0.687-1.649-1.421-2.432-2.202l-213.979-214.023c-5.181-5.176-11.965-7.765-18.748-7.765-6.789 0-13.573 2.589-18.748 7.766-12.995 12.995-34.062 12.995-47.057 0l-326.965-326.964zM122.357 164.529c18.293-9.349 39.016-14.628 60.97-14.628 37.044 0 70.584 15.022 94.863 39.3s39.297 57.818 39.297 94.865c0 21.954-5.275 42.674-14.626 60.967l163.653 163.657 106.176-106.171-386.188-386.19-106.172 106.176 42.027 42.024zM619.747 449.576l-106.176 106.171 21.687 21.689 106.176-106.174-21.687-21.687zM688.491 518.32l-106.176 106.175 31.251 31.248c12.042-5.376 24.995-8.066 37.948-8.066 23.812 0 47.625 9.089 65.805 27.265l213.979 214.022c0.317 0.317 0.625 0.639 0.927 0.966 1.234 1.038 2.55 1.836 3.901 2.395 1.756 0.725 3.794 1.089 5.98 1.089 2.212 0 4.26-0.362 6.011-1.087 1.725-0.712 3.395-1.811 4.9-3.297 2.929-2.971 4.398-6.913 4.398-10.893 0-3.982-1.469-7.922-4.398-10.893l-214.086-213.92c-0.732-0.735-1.423-1.497-2.074-2.281-7.869-8.401-13.891-17.874-18.047-27.908-4.762-11.478-7.153-23.588-7.153-35.599 0-11.94 2.391-24.029 7.153-35.524 0.328-0.79 0.666-1.574 1.014-2.355l-31.333-31.336z" />
<glyph unicode="&#xe914;" glyph-name="football" data-tags="football" d="M958.771 697.441c-45.066 81.423-112.667 149.325-195.358 196.229-76.134 43.246-162.95 66.119-251.417 66.237-138.52-3.042-270.144-58.631-366.075-154.601s-148.361-224.511-145.816-357.495c-2.543-132.949 49.898-261.443 145.842-357.351 95.944-95.903 227.569-151.402 366.049-154.335 138.519 2.825 270.208 58.289 366.177 154.217s148.371 224.49 145.715 357.469c-0.010 86.687-22.38 172.023-65.118 248.388v1.242zM884.593 194.036c-4.807 4.325-11.093 6.829-17.68 7.039l-160.422 9.106-77.194 120.058 65.548 128.747 142.311 31.463 120.32-106.394c-9.516-67.57-34.717-132.222-73.743-189.19l0.86-0.829zM169.586 740.91l27.168-124.196-113.849-67.066-8.625 7.452c16.85 67.411 49.438 130.263 95.306 183.809zM258.854 622.511l-35.362 156.9c-0.828 3.801-2.603 7.352-5.175 10.35 64.255 55.804 144.192 92.229 229.855 104.738l106.087-120.469-31.051-145.308-131.53-64.996-132.824 58.787zM597.817 818.324l-72.453 80.313c58.305-1.686 115.651-14.639 168.622-38.086l-96.169-42.226zM446.878 382.811l-20.7 129.993 117.731 60.027 93.149-93.146-59.942-117.57-130.237 20.696zM882.438 531.434l43.127 97.7c23.542-53.51 36.272-110.829 37.516-168.905l-80.643 71.205zM888.043 697.027l-63.822-147.379-140.586-30.634-100.485 100.598 31.481 139.927 147.056 63.753c50.406-33.821 93.343-76.873 126.355-126.679v0.414zM62.637 487.138c4.919-3.369 10.778-5.244 16.818-5.382 5.343-0.052 10.586 1.386 15.094 4.14l138.431 80.727 132.393-57.958 22.856-141.999-103.068-102.25-158.268 24.837c-6.145 0.886-12.423-0.072-17.979-2.738s-10.122-6.916-13.070-12.162c-23.151 55.269-35.011 114.3-34.932 173.871 0 12.833 0 26.081 0 38.915h1.725zM129.48 208.113l8.625 17.389 129.374-20.287 20.7-130.404-17.681-8.697c-57.295 36.82-105.441 85.302-141.018 141.999zM337.341 31.756c5.494 3.097 9.879 7.729 12.573 13.273s3.574 11.743 2.52 17.773l-25.012 158.558 103.931 102.665 144.897-23.183 79.783-124.195-58.218-149.446c-2.805-7.35-2.805-15.418 0-22.769-28.39-5.534-57.286-8.308-86.251-8.277-59.363 0.22-118.058 12.049-172.499 34.773l-1.725 0.829zM664.229 23.888l-3.020 2.482 47.867 124.195 131.53-7.448c-47.995-51.957-108.357-92.007-175.948-116.747l-0.43-2.482z" />
<glyph unicode="&#xe915;" glyph-name="handball" data-tags="handball" d="M1021.394 499.388c-1.659 16.462-4.127 32.947-7.316 48.925-4.9 24.783-11.832 49.662-20.551 73.901-0.159 0.436-0.364 0.871-0.522 1.307-0.046 0.121-0.097 0.242-0.143 0.363-6.881 18.94-15.048 37.724-24.263 55.673-11.407 22.581-24.519 44.256-38.972 64.612-0.133 0.194-0.251 0.387-0.384 0.581-0.123 0.169-0.23 0.363-0.353 0.532-10.051 13.97-20.766 27.359-31.533 39.478-27.104 31.339-58.284 59.375-92.633 83.262-0.123 0.084-0.241 0.157-0.353 0.242-0.046 0.036-0.092 0.072-0.154 0.097-85.911 59.931-186.941 91.608-292.23 91.608-105.312 0-206.379-31.701-292.241-91.608-0.048-0.025-0.084-0.061-0.133-0.085-0.097-0.060-0.194-0.121-0.29-0.194-36.539-25.387-69.692-55.637-98.381-89.721-8.273-9.664-16.462-20.138-25.955-33.201-16.377-23.004-30.831-47.28-42.89-72.038-8.019-16.28-15.301-33.382-21.601-50.762-9.205-25.23-16.509-52.045-21.698-79.634-0.012-0.036-0.012-0.073-0.024-0.121 0-0.024-0.012-0.036-0.012-0.060-2.697-14.128-4.79-28.678-6.193-43.204-1.705-17.186-2.564-34.471-2.564-51.355 0-25.543 1.899-51.224 5.649-76.306 0.060-0.425 0.157-0.85 0.218-1.27 0-0.026 0.012-0.061 0.012-0.087 18.033-118.893 78.013-228.099 168.992-307.529 32.125-28.256 67.624-52.273 105.349-71.325 41.329-21.191 85.548-36.525 131.038-45.5 0.121-0.026 0.23-0.036 0.351-0.061 0.097-0.026 0.194-0.036 0.29-0.051 7.971-1.669 15.821-3.057 23.754-4.193 25.121-3.763 50.799-5.663 76.32-5.663 24.142 0 48.201 1.695 71.24 4.972 7.777 1.039 15.529 2.335 23.136 3.748 45.224 8.335 89.213 22.931 130.679 43.34 37.687 18.395 73.101 41.594 105.167 68.867 96.673 81.473 159.457 194.999 176.743 319.539 3.338 23.321 5.033 47.379 5.033 71.519 0 16.884-0.86 34.169-2.575 51.404zM408.015 8.814c-21.009 4.92-41.547 11.331-61.54 19.24l438.070 438.073h80.797l-457.325-457.313zM239.941 87.829l123.382 123.332c0.145 0.148 0.326 0.246 0.472 0.389s0.242 0.312 0.375 0.471l163.102 163.057c0.051 0.046 0.108 0.082 0.169 0.133 0.061 0.046 0.087 0.108 0.133 0.169l90.785 90.759h80.674l-410.384-410.387c-16.872 9.59-33.153 20.269-48.708 32.076zM888.057 697.384c9.58-14.466 18.651-29.451 26.643-45.272 1.669-3.241 3.098-6.592 4.68-9.882h-616.218l-55.153 55.153h640.049zM144.076 709.83c0.871 1.198 1.681 2.274 2.54 3.435l238.249-238.261c0 0 0.024-0.024 0.048-0.049l78.365-78.365-39.068-39.054-307.929 307.929c8.382 15.265 17.671 30.166 27.794 44.365zM506.045 439.347l-26.779 26.78h53.555l-26.776-26.78zM381.442 314.791l-39.079-39.065-270.712 270.723c4.233 19.049 9.265 37.677 15.676 55.226 0.629 1.754 1.391 3.447 2.044 5.177l292.072-292.061zM64.418 390.038c-2.456 19.143-3.943 38.558-3.943 57.946 0 7.753 0.229 15.591 0.641 23.489l238.491-238.502-39.067-39.054-196.122 196.121zM418.792 526.602l-55.153 55.153h579.355c4.644-14.998 8.781-30.092 11.781-45.236 0.65-3.266 1.147-6.616 1.731-9.918h-537.713zM662.533 873.489h-301.097c47.921 16.957 98.587 26.004 150.547 26.004s102.627-9.047 150.549-26.004zM246.582 813.014h530.83c22.578-16.401 43.478-34.834 62.529-55.153h-652.407l-1.959 1.959c18.686 19.618 39.152 37.338 61.007 53.194zM95.599 273.33l122.172-122.159-23.621-23.607c-42.321 41.886-75.74 91.497-98.551 145.768zM482.339-2.388l468.513 468.515h12.18c0.246-6.084 0.461-12.156 0.461-18.142 0-18.011-1.295-35.849-3.4-53.41l-394.684-394.689c-27.104-3.231-55.083-4.076-83.070-2.273zM803.114 103.080c-28.318-24.094-59.472-44.523-92.7-60.731-10.025-4.931-20.243-9.395-30.576-13.542l251.348 251.343c-27.212-67.971-70.864-128.856-128.073-177.070z" />
<glyph unicode="&#xe916;" glyph-name="hockey" data-tags="hockey" d="M36.66 959.968h146.136c6.747-0.020 13.357-1.911 19.095-5.461s10.385-8.622 13.421-14.653l267.062-534.657c4.604-9.139 11.654-16.813 20.363-22.174s18.734-8.192 28.959-8.182h308.712c29.173 0.113 57.506-9.764 80.3-27.99s38.675-43.703 45.009-72.21l56.994-255.992c1.48-5.494 1.659-11.259 0.522-16.834s-3.558-10.808-7.071-15.278c-3.512-4.475-8.018-8.069-13.158-10.491-5.146-2.427-10.778-3.615-16.461-3.476h-330.998c-23.792-23.392-55.796-36.52-89.141-36.571h-146.137c-25.656-0.056-50.733 7.634-71.954 22.066s-37.598 34.943-46.99 58.842c-9.393 23.899-11.364 50.077-5.656 75.119 5.708 25.036 18.829 47.769 37.649 65.222l-330.266 751.521c-2.431 5.575-3.434 11.67-2.919 17.73s2.533 11.898 5.871 16.981c3.337 5.084 7.889 9.254 13.243 12.133s11.34 4.375 17.416 4.354zM420.266 9.141h146.137c14.531 0 28.471 5.78 38.747 16.067 10.281 10.286 16.051 24.237 16.051 38.788s-5.77 28.502-16.051 38.788c-10.276 10.291-24.217 16.067-38.747 16.067h-146.137c-14.535 0-28.473-5.775-38.75-16.067-10.277-10.286-16.051-24.237-16.051-38.788s5.774-28.502 16.051-38.788c10.277-10.286 24.216-16.067 38.75-16.067zM399.076 189.796c6.989 1.326 14.078 2.063 21.189 2.196h146.137c33.914 0 66.435-13.486 90.416-37.488 23.981-24.007 37.452-56.564 37.452-90.508-0.169-6.134-0.778-12.242-1.828-18.283h248.43l-47.129 212.838c-2.662 12.196-9.395 23.116-19.091 30.96-9.697 7.849-21.779 12.15-34.247 12.196h-308.712c-23.7 0.108-46.91 6.758-67.083 19.204-20.172 12.452-36.528 30.227-47.27 51.372l-257.198 514.545h-67.588l306.519-697.032z" />
<glyph unicode="&#xe917;" glyph-name="korfball" data-tags="korfball" d="M352.708 959.968h591.624c43.99 0 79.645-35.362 79.645-78.984v-180.535c0-43.622-35.655-78.984-79.645-78.984h-591.624c-32.577 0-60.586 19.397-72.923 47.182-5.814-1.339-11.872-2.048-18.096-2.048h-56.887v-56.416c0-35.78-23.988-66.002-56.885-75.713v-598.471h-91.019v598.47c-32.898 9.71-56.888 39.933-56.888 75.714v180.535c0 43.622 35.657 78.984 79.643 78.984h182.038c3.863 0 7.662-0.273 11.378-0.8v12.084c0 43.622 35.657 78.984 79.643 78.984zM273.065 745.584v45.134c0 6.232-5.094 11.283-11.378 11.283h-182.038c-6.284 0-11.378-5.052-11.378-11.283v-180.535c0-6.232 5.094-11.284 11.378-11.284h45.51c6.284 0 11.378 5.052 11.378 11.284v124.117h125.151c6.284 0 11.378 5.052 11.378 11.283zM341.331 745.584v-45.134c0-6.232 5.094-11.284 11.378-11.284h591.624c6.287 0 11.382 5.052 11.382 11.284v180.535c0 6.232-5.094 11.284-11.382 11.284h-591.624c-6.284 0-11.378-5.052-11.378-11.284v-135.401zM386.841 251.935c0 34.539 7.451 67.346 20.844 96.939l65.709-37.626v-91.778l-74.329-42.562c-7.93 23.577-12.225 48.803-12.225 75.026zM515.637 363.364l0.814 1.408-72.149 41.312c32.469 37.554 76.588 64.918 126.803 76.574v-87.53l-55.468-31.763zM725.111 369.537l-85.742 49.095v69.877c63.783-3.55 120.884-31.912 161.644-75.514l-75.902-43.458zM778.132 321.724l61.796 35.383c15.852-31.692 24.764-67.398 24.764-105.172 0-32.956-6.784-64.346-19.045-92.858l-67.515 38.655v123.992zM738.719 142.124l71.427-40.898c-39.29-47.226-96.673-79.097-161.628-85.184v74.433l90.201 51.649zM429.805 116.336l64.020 36.658 86.429-49.488v-84.226c-62.047 11.868-115.546 47.538-150.449 97.057zM625.766 556.587c-169.655 0-307.189-136.398-307.189-304.652s137.534-304.651 307.189-304.651c169.656 0 307.191 136.398 307.191 304.651s-137.535 304.652-307.191 304.652zM541.656 203.777v96.314l84.108 48.158 84.103-48.158v-96.314l-84.103-48.158-84.108 48.158z" />
<glyph unicode="&#xe918;" glyph-name="tennis" data-tags="tennis" d="M113.526-63.969c14.982-0.056 29.827 2.852 43.681 8.555s26.442 14.094 37.041 24.683l200.892 200.876c6.803 6.84 10.621 16.096 10.621 25.746s-3.818 18.907-10.621 25.746l-28.855 28.854 41.639 41.633c50.68-37.487 112.294-57.249 175.322-56.245 14.53-0.010 29.044 0.845 43.466 2.56 99.424 14.012 191.328 60.801 261.16 132.943 71.942 69.782 118.593 161.531 132.585 260.77 6.922 44.335 3.538 89.669-9.891 132.485s-36.539 81.964-67.539 114.408c-32.449 30.998-71.599 54.107-114.42 67.534s-88.156 16.813-132.498 9.894c-99.327-13.817-191.222-60.338-261.157-132.212-71.942-69.781-118.593-161.533-132.588-260.771-11.618-77.21 7.53-155.896 53.328-219.134l-41.273-42.001-28.855 28.849c-6.844 6.804-16.101 10.623-25.75 10.623s-18.907-3.82-25.75-10.623l-200.892-200.871c-15.847-15.938-26.628-36.202-30.989-58.246-4.36-22.041-2.104-44.884 6.485-65.65s23.126-38.531 41.783-51.059c18.658-12.528 40.604-19.26 63.077-19.347zM515.307 319.153c-31.668 8.846-60.53 25.69-83.813 48.903-23.284 23.218-40.205 52.032-49.139 83.676h132.952v-132.579zM836.004 423.247c-58.548-60.648-135.687-99.982-219.154-111.763-9.824-1.111-19.701-1.72-29.586-1.823v142.070h273.575c-6.938-9.86-16.803-19.357-24.835-28.485zM588.359 524.777v146.091h146.1v-146.091h-146.1zM807.513 875.76c31.732-8.487 60.688-25.119 84.009-48.246 23.326-23.127 40.195-51.946 48.944-83.601h-132.953v131.847zM807.513 670.867h142.086c-0.102-9.886-0.712-19.761-1.828-29.583-5.125-40.705-17.494-80.162-36.524-116.507h-103.735v146.091zM486.819 772.4c58.546 60.643 135.685 99.98 219.156 111.759 9.855 0.503 19.726 0.503 29.581 0v-140.246h-274.67c8.036 9.861 17.897 19.357 25.933 28.487zM375.049 553.265c5.124 40.705 17.494 80.163 36.526 116.507h103.732v-146.090h-142.083c0.063 10.251 0.673 20.492 1.826 30.679v-1.096zM82.844 78.471l176.784 175.672 58.075-58.067-175.323-174.945c-7.702-7.7-18.146-12.026-29.038-12.026s-21.337 4.326-29.038 12.026c-7.702 7.7-12.027 18.144-12.027 29.034s4.327 21.334 12.027 29.039l-1.461-0.732z" />
<glyph unicode="&#xe919;" glyph-name="terrain" data-tags="terrain" d="M1000.192 689.553l-10.778-10.803c-31.707-31.776-83.11-31.776-114.813 0l-11.699 11.727-336.384-337.149 100.206-100.441c30.842-30.908 30.842-81.022 0-111.93l-52.376-52.498c-126.373-126.66-308.851-179.292-483.066-139.332-38.903 8.924-69.281 39.372-78.185 78.365-39.872 174.613 12.641 357.503 139.015 484.168l52.378 52.497c30.839 30.909 80.839 30.909 111.678 0l95.54-95.758 336.382 337.151-4.7 4.712c-31.702 31.776-31.702 83.295 0 115.073l10.778 10.803c31.702 31.776 83.105 31.776 114.813 0l131.211-131.511c31.702-31.776 31.702-83.295 0-115.073zM950.985 755.309l-131.211 131.511c-4.526 4.539-11.873 4.539-16.399 0l-10.783-10.803c-4.526-4.54-4.526-11.9 0-16.44l131.216-131.511c4.526-4.539 11.868-4.539 16.399 0l10.778 10.803c4.531 4.54 4.531 11.9 0 16.44zM790.821 749.744l-329.478-330.231 16.402-16.44 329.481 330.232-16.404 16.439zM266.964 514.84c-3.664 3.673-9.605 3.673-13.27 0l-52.377-52.497c-109.441-109.69-154.917-268.078-120.387-419.292 2.947-12.908 13.001-22.983 25.877-25.937 150.871-34.605 308.898 10.972 418.34 120.664l52.376 52.493c3.666 3.676 3.666 9.631 0 13.302l-310.559 311.268z" />
<glyph unicode="&#xe91a;" glyph-name="volleyball" data-tags="volleyball" d="M470.332 1.78c14.253 31.794 25.215 62.493 32.889 90.995-86.609 8.771-176.509 33.986-263.118 83.32-49.335 27.406-97.573 62.493-144.716 106.345 23.023-57.009 57.009-108.536 99.766-151.291 72.358-71.263 167.738-119.502 275.179-129.368zM517.476 156.363c4.383 26.311 6.574 52.621 6.574 77.837 0 7.675 0 15.35 0 21.928-1.096 0-3.287 0-5.478 1.096-86.611 14.254-171.028 38.373-253.252 86.607-66.876 40.565-132.655 97.574-195.146 179.8-4.385-24.119-6.578-49.335-6.578-75.647 0-13.158 1.096-25.215 2.193-38.373 63.587-80.029 133.752-138.134 205.013-177.603 81.128-46.048 165.545-69.072 246.676-75.646zM516.38 321.908c-6.581 35.081-16.448 67.971-28.507 100.861-65.78 23.024-130.463 54.816-189.664 104.151-53.72 46.046-103.055 106.343-146.908 187.472-24.119-33.987-44.95-71.262-59.201-110.729 65.779-98.67 134.848-162.258 206.109-205.014 70.165-41.66 142.523-63.588 218.171-76.742zM501.029 485.259c42.758 52.623 93.188 98.67 157.872 135.945 61.392 35.082 134.847 61.394 226.937 74.55-17.54 25.216-36.177 48.239-57.009 69.069-8.771 8.771-17.54 17.541-27.406 25.215-107.44-27.408-187.473-66.876-249.961-115.115-57.010-42.757-100.863-94.284-137.042-150.196 28.504-16.445 57.009-28.505 86.609-39.468zM360.699 558.713c40.564 61.394 87.706 118.403 151.293 167.738 59.201 43.853 130.464 82.225 221.459 110.729-31.794 18.637-67.971 32.89-105.249 43.853-78.933-27.408-145.812-62.49-201.724-104.151-59.201-42.757-105.247-93.188-141.426-146.908 17.541-19.734 36.179-38.371 54.816-53.72 6.578-6.578 14.253-12.060 20.83-17.541zM244.488 683.694c38.372 52.623 85.513 101.959 143.619 144.716 32.89 24.119 70.165 47.142 110.729 66.876-117.306-3.289-223.65-51.527-301.49-129.367 14.253-30.697 30.697-58.105 47.142-82.225zM918.728 635.456c-35.081-4.385-67.971-9.867-97.574-17.541 36.182-64.684 64.684-139.234 77.842-222.552 7.675-49.335 10.962-103.057 7.675-160.067 33.986 63.588 52.621 135.947 52.621 212.689 0 66.876-14.254 130.463-40.565 187.472zM880.36 92.775c-2.196-2.191-4.388-4.388-6.579-6.579-92.090-93.186-220.363-150.195-361.789-150.195s-269.697 57.009-361.788 150.195c-93.188 92.090-150.196 220.363-150.196 361.789s57.009 269.697 150.196 361.788c92.091 93.188 220.361 150.196 361.788 150.196 118.401 0 228.038-40.564 314.645-108.536 2.191-1.097 3.292-2.193 4.388-3.289 15.345-12.060 29.598-25.216 42.756-38.372 93.186-92.091 150.195-220.361 150.195-361.788 0-138.139-54.818-263.119-143.617-355.209zM827.732 131.148c19.737 93.186 19.737 178.698 7.675 254.343-12.058 80.034-40.565 151.295-76.742 212.69-24.119-9.867-47.144-19.734-67.971-31.794-7.675-5.481-15.35-9.867-23.024-14.253 38.373-69.069 69.067-142.525 82.225-228.036 12.058-76.742 9.866-162.258-12.063-263.119 32.89 19.737 63.588 42.756 89.899 70.168zM663.283 25.899c31.794 114.019 36.182 207.206 24.119 288.334-12.058 73.455-37.273 138.136-71.258 198.434-25.215-20.83-47.144-44.95-67.976-70.167 24.119-64.684 40.565-132.655 40.565-208.301-1.096-71.263-15.35-148.005-49.335-233.516 42.761 3.287 84.421 12.058 123.885 25.215z" />
<glyph unicode="&#xe91b;" glyph-name="info" data-tags="info" d="M512 959.992c-282.214 0-511.992-229.778-511.992-511.992 0-282.212 229.778-511.992 511.992-511.992 282.212 0 511.992 229.78 511.992 511.992 0 282.214-229.78 511.992-511.992 511.992zM512 866.903c231.902 0 418.902-186.999 418.902-418.902s-187.001-418.902-418.902-418.902c-231.904 0-418.902 187.001-418.902 418.902 0 231.905 186.997 418.902 418.902 418.902zM512 680.723c-25.706 0-46.545-20.839-46.545-46.545v0c0-25.706 20.839-46.545 46.545-46.545v0h0.456c25.706 0 46.545 20.839 46.545 46.545v0c0 25.706-20.839 46.545-46.545 46.545v0zM512 494.545c-25.706 0-46.545-20.839-46.545-46.545v0-186.179c0-25.706 20.839-46.545 46.545-46.545v0c25.706 0 46.545 20.839 46.545 46.545v0 186.179c0 25.706-20.839 46.545-46.545 46.545v0z" />
<glyph unicode="&#xe91c;" glyph-name="lightbulb" data-tags="lightbulb" d="M512 959.983c-0.011 0-0.024 0-0.036 0-25.682 0-46.506-20.799-46.548-46.47v-46.588c0-0.011 0-0.024 0-0.036 0-25.707 20.84-46.548 46.548-46.548 0.013 0 0.025 0 0.038 0h-0.002c0.011 0 0.024 0 0.036 0 25.707 0 46.548 20.84 46.548 46.548 0 0.013 0 0.025 0 0.038v-0.002 46.584c-0.041 25.676-20.866 46.475-46.548 46.475-0.013 0-0.025 0-0.038 0h0.002zM181.551 825.033c-0.009 0-0.019 0-0.029 0-12.856 0-24.494-5.211-32.917-13.637v0c-8.41-8.421-13.612-20.049-13.612-32.892s5.202-24.471 13.612-32.892v0l27.928-27.928c8.421-8.41 20.049-13.612 32.892-13.612s24.471 5.202 32.892 13.612v0c8.41 8.421 13.612 20.049 13.612 32.892s-5.202 24.471-13.612 32.892v0l-27.928 27.928c-8.406 8.407-20.011 13.614-32.833 13.637h-0.004zM842.449 825.033c-12.826-0.023-24.432-5.23-32.838-13.637l-27.928-27.928c-8.41-8.421-13.612-20.049-13.612-32.892s5.202-24.471 13.612-32.892v0c8.421-8.41 20.049-13.612 32.892-13.612s24.471 5.202 32.892 13.612v0l27.928 27.928c8.41 8.421 13.612 20.049 13.612 32.892s-5.202 24.471-13.612 32.892v0c-8.423 8.425-20.061 13.637-32.917 13.637-0.010 0-0.021 0-0.031 0h0.001zM512 773.867c-179.4 0-325.867-146.467-325.867-325.867 0-128.883 77.143-238.503 186.225-291.284v-81.058c0-76.572 63.071-139.642 139.642-139.642s139.642 63.070 139.642 139.642v81.058c109.082 52.781 186.225 162.401 186.225 291.284 0 179.399-146.466 325.867-325.867 325.867zM512 680.7c129.090 0 232.7-103.61 232.7-232.7 0-129.087-103.61-232.7-232.7-232.7-129.088 0-232.7 103.613-232.7 232.7 0 129.089 103.612 232.7 232.7 232.7zM46.491 494.584c-25.676-0.041-46.475-20.866-46.475-46.548 0-0.013 0-0.025 0-0.038v0.002c0-0.011 0-0.024 0-0.036 0-25.682 20.799-46.506 46.47-46.548h46.588c0.011 0 0.024 0 0.036 0 25.707 0 46.548 20.84 46.548 46.548 0 0.013 0 0.025 0 0.038v-0.002c0 0.011 0 0.024 0 0.036 0 25.707-20.84 46.548-46.548 46.548-0.013 0-0.025 0-0.038 0h0.002zM930.925 494.584c-0.011 0-0.024 0-0.036 0-25.707 0-46.548-20.84-46.548-46.548 0-0.013 0-0.025 0-0.038v0.002c0-0.011 0-0.024 0-0.036 0-25.707 20.84-46.548 46.548-46.548 0.013 0 0.025 0 0.038 0h46.581c25.677 0.041 46.475 20.866 46.475 46.548 0 0.013 0 0.025 0 0.038v-0.002c0 0.011 0 0.024 0 0.036 0 25.682-20.799 46.506-46.47 46.548h-0.004zM465.416 131.624c15.864-2.392 30.073-9.491 46.584-9.491s30.72 7.099 46.584 9.491v-55.966c0-26.26-20.327-46.584-46.584-46.584-26.259 0-46.584 20.323-46.584 46.584z" />
<glyph unicode="&#xe91d;" glyph-name="rectangle_full" data-tags="rectangle_full" d="M80.842 879.158h862.316v-431.158h-862.316v431.158zM80.842 448h862.316v-431.158h-862.316v431.158zM0 960v-1024h1024v1024zM80.842 879.158h862.316v-862.316h-862.316z" />
<glyph unicode="&#xe91e;" glyph-name="rectangle_left" data-tags="rectangle_left" d="M80.842 16.842v862.316h431.158v-862.316h-431.158zM0-64h1024v1024h-1024zM80.842 16.842v862.316h862.316v-862.316z" />
<glyph unicode="&#xe91f;" glyph-name="rectangle_right" data-tags="rectangle_right" d="M512 16.842v862.316h431.158v-862.316h-431.158zM0-64h1024v1024h-1024zM80.842 16.842v862.316h862.316v-862.316z" />
<glyph unicode="&#xe920;" glyph-name="rectangle_third" data-tags="rectangle_third" d="M80.842 879.158h862.316l-862.316-862.316v862.316zM0 960v-1024h1024v1024zM80.842 879.158h862.316v-862.316h-862.316z" />
<glyph unicode="&#xe921;" glyph-name="deactivate" data-tags="deactivate" d="M512.014 959.985c-140.865 0-268.637-57.241-361.324-149.679-0.485-0.229-0.7-0.338-0.913-0.449l0.259 0.122c0.011 0.045-0.098-0.169-0.205-0.385l-0.122-0.269c-92.438-92.688-149.679-220.459-149.679-361.324 0-282.231 229.755-511.985 511.985-511.985 140.865 0 268.638 57.242 361.324 149.679 0.483 0.23 0.698 0.34 0.912 0.452l-0.257-0.122c4.301 4.28 7.768 9.392 10.142 15.075l0.113 0.308c85.161 91.479 139.751 212.11 139.751 346.594 0 282.23-229.754 511.985-511.985 511.985zM512.014 866.927c231.92 0 418.927-187.007 418.927-418.927 0-98.842-39.070-185.613-96.004-257.138l-580.061 580.061c71.526 56.935 158.298 96.004 257.138 96.004zM189.092 705.138l580.061-580.061c-71.525-56.934-158.296-96.004-257.138-96.004-231.92 0-418.927 187.007-418.927 418.927 0 98.84 39.069 185.612 96.004 257.138z" />
<glyph unicode="&#xe922;" glyph-name="hardware" data-tags="hardware" d="M512 634.164c-102.271 0-186.177-83.906-186.177-186.177s83.907-186.177 186.177-186.177c102.272 0 186.177 83.905 186.177 186.177 0 102.27-83.904 186.177-186.177 186.177zM512 541.076c51.966 0 93.089-41.125 93.089-93.089 0-51.967-41.122-93.089-93.089-93.089-51.964 0-93.089 41.123-93.089 93.089 0 51.963 41.126 93.089 93.089 93.089zM512 959.974c-34.77 0-68.137-13.865-92.725-38.454-24.585-24.586-38.454-57.955-38.454-92.725v-7.182c-0.052-4.48-1.343-8.808-3.818-12.545-2.265-3.421-5.614-5.909-9.273-7.727-1.921-0.295-3.55-0.644-5.144-1.075l0.326 0.075c-4.258-1.88-8.966-2.467-13.545-1.636-4.581 0.831-8.854 3.017-12.182 6.273l-2.091 2.091c-12.182 12.196-26.711 21.944-42.635 28.544s-32.943 10-50.181 10c-17.238 0-34.348-3.399-50.272-10s-30.362-16.349-42.544-28.544c-12.171-12.171-21.863-26.554-28.454-42.454-6.601-15.924-10-33.034-10-50.272s3.399-34.349 10-50.272c6.601-15.922 16.258-30.361 28.454-42.544l2.182-2.182c3.256-3.328 5.442-7.511 6.273-12.091s0.243-9.286-1.636-13.545c-0.277-0.59-0.646-1.491-0.986-2.405l-0.105-0.322c-1.614-4.388-4.471-8.19-8.273-10.909s-8.327-4.163-13-4.273h-2.727c-34.77 0-68.138-13.867-92.725-38.454-24.581-24.585-38.454-57.955-38.454-92.725s13.868-68.227 38.454-92.816c24.588-24.59 57.959-38.363 92.725-38.363h7.182c4.481-0.051 8.805-1.432 12.545-3.909 3.786-2.507 6.757-6.008 8.545-10.182 0.172-0.464 0.233-0.615 0.295-0.765l-0.113 0.309c1.879-4.257 2.467-8.967 1.636-13.545-0.831-4.58-3.021-8.858-6.273-12.182l-2.182-2.182c-12.165-12.168-21.862-26.643-28.454-42.544-6.602-15.924-10-32.941-10-50.181 0-17.237 3.398-34.348 10-50.272 6.599-15.92 16.339-30.357 28.544-42.544 12.173-12.176 26.554-21.863 42.454-28.454 15.924-6.601 33.034-10 50.272-10s34.349 3.399 50.272 10c15.922 6.602 30.359 16.253 42.544 28.455l2.182 2.182c3.328 3.256 7.509 5.441 12.091 6.273 4.586 0.83 9.286 0.242 13.545-1.637 0.59-0.277 1.491-0.646 2.405-0.986l0.322-0.105c4.394-1.617 8.193-4.473 10.909-8.273 2.719-3.802 4.163-8.327 4.273-13v-2.727c0-34.77 13.867-68.136 38.454-92.725 24.583-24.574 57.952-38.453 92.725-38.453s68.138 13.875 92.725 38.454c0.014 0 0.030 0 0.047 0s0.033 0 0.049 0h-0.003c24.59 24.59 38.363 57.959 38.363 92.725v7.182c0.051 4.487 1.432 8.805 3.909 12.545 2.506 3.784 5.996 6.75 10.182 8.545 0.465 0.171 0.615 0.233 0.765 0.295l-0.309-0.113c4.258 1.879 8.969 2.466 13.545 1.637 4.581-0.831 8.856-3.020 12.182-6.273l2.182-2.182c12.178-12.186 26.622-21.852 42.544-28.454 15.924-6.602 32.941-10 50.181-10 17.237 0 34.348 3.398 50.272 10 15.917 6.599 30.358 16.344 42.544 28.544 12.171 12.171 21.862 26.555 28.454 42.454 6.602 15.924 10 33.032 10 50.272 0 17.207-3.421 34.281-10 50.181v0.093c-6.591 15.878-16.292 30.299-28.454 42.454v0.093l-2.182 2.182c-3.247 3.318-5.441 7.508-6.273 12.091-0.83 4.587-0.247 9.283 1.637 13.545-0.051-0.159 0.010-0.008 0.071 0.143l0.111 0.314c1.785 4.166 4.757 7.673 8.545 10.182 0 0.014 0 0.030 0 0.047s0 0.033 0 0.049v-0.003c3.736 2.476 8.077 3.767 12.545 3.818h3.818c34.773 0 68.138 13.867 92.725 38.454 24.581 24.577 38.45 57.945 38.45 92.718s-13.872 68.139-38.454 92.725c-24.588 24.586-57.955 38.454-92.725 38.454h-7.182c-4.485 0.052-8.807 1.343-12.545 3.818-3.419 2.264-5.904 5.606-7.727 9.273-0.295 1.921-0.644 3.55-1.075 5.144l0.075-0.326c-1.88 4.26-2.467 8.969-1.637 13.545 0.819 4.514 3.005 8.693 6.182 12 0.047 0.050 0.043 0.132 0.093 0.182l2.091 2.091c0.014 0 0.030 0 0.047 0s0.033 0 0.049 0h-0.003c12.187 12.181 21.849 26.713 28.449 42.635 6.601 15.924 10 32.943 10 50.181s-3.399 34.348-10 50.272c-6.601 15.922-16.263 30.363-28.454 42.544-12.18 12.191-26.622 21.852-42.544 28.454-15.924 6.602-33.032 10-50.272 10-17.237 0-34.348-3.398-50.272-10-15.902-6.601-30.38-16.272-42.544-28.454l-2.182-2.182c-3.318-3.247-7.51-5.442-12.091-6.273s-9.284-0.244-13.545 1.636c0.159-0.051 0.008 0.010-0.143 0.071l-0.313 0.111c-4.175 1.789-7.675 4.759-10.182 8.545-0.014 0-0.030 0-0.047 0s-0.033 0-0.049 0h0.003c-2.475 3.736-3.767 8.075-3.818 12.545v3.818c0 34.773-13.867 68.139-38.454 92.725-24.583 24.591-57.951 38.453-92.722 38.453zM512 866.885c10.117 0 19.761-4.033 26.908-11.182 7.157-7.156 11.182-16.794 11.182-26.908v-3.818c0-0.027 0-0.059 0-0.091s0-0.064 0-0.096v0.005c0.084-22.668 6.86-44.823 19.364-63.725 12.479-18.846 30.246-33.595 50.999-42.544 21.197-9.295 44.672-12.131 67.453-8 22.871 4.147 44.013 15.009 60.634 31.272 0.010 0.008 0.1 0.126 0.189 0.245l0.085 0.118 2.544 2.546c0.014 0 0.030 0 0.047 0s0.033 0 0.049 0h-0.003c3.531 3.537 7.739 6.356 12.364 8.273 4.621 1.916 9.543 2.909 14.545 2.909 5.009 0 9.924-0.993 14.545-2.909 4.623-1.917 8.821-4.727 12.364-8.273 0.014 0 0.030 0 0.047 0s0.033 0 0.049 0h-0.003c3.541-3.538 6.356-7.739 8.273-12.364 1.917-4.623 2.909-9.632 2.909-14.636s-0.992-9.922-2.909-14.545c-1.917-4.625-4.732-8.825-8.273-12.364l-2.546-2.545c-0.123-0.121-0.241-0.24-0.359-0.359l-0.005-0.005c-16.246-16.615-27.214-37.764-31.363-60.634-4.15-22.875-1.293-46.46 8.091-67.725l-4 18.818v-3.455c0.028-6.612 1.43-12.889 3.935-18.571l-0.117 0.298c8.938-20.843 23.715-38.651 42.635-51.181 18.917-12.527 41.127-19.273 63.816-19.364 0.027 0 0.059 0 0.091 0s0.064 0 0.096 0h7.177c10.117 0 19.753-4.027 26.908-11.182 7.148-7.153 11.177-16.795 11.177-26.908s-4.033-19.759-11.182-26.908c-7.156-7.156-16.795-11.182-26.908-11.182h-3.818c-0.027 0-0.059 0-0.091 0s-0.064 0-0.096 0h0.005c-22.667-0.084-44.824-6.86-63.725-19.364-18.843-12.477-33.594-30.237-42.544-50.999-9.294-21.196-12.215-44.679-8.091-67.453 0.014 0 0.030 0 0.047 0s0.033 0 0.049 0h-0.003c4.149-22.868 15.008-44.014 31.272-60.634 0.008-0.010 0.127-0.1 0.245-0.189l0.118-0.085 2.546-2.546c0-0.014 0-0.030 0-0.047s0-0.033 0-0.049v0.003c3.536-3.53 6.356-7.739 8.273-12.364 1.916-4.621 2.909-9.543 2.909-14.545 0-5.009-0.993-9.924-2.909-14.545-1.917-4.623-4.728-8.823-8.273-12.364 0-0.014 0-0.030 0-0.047s0-0.033 0-0.049v0.003c-3.527-3.531-7.736-6.354-12.364-8.273-4.621-1.916-9.634-2.909-14.636-2.909-5.009 0-9.924 0.993-14.545 2.909-4.623 1.917-8.819 4.726-12.364 8.273l-2.546 2.546c-0.122 0.123-0.24 0.241-0.359 0.359l-0.004 0.004c-16.614 16.25-37.764 27.213-60.634 31.363-22.785 4.134-46.252 1.205-67.453-8.091-20.741-8.949-38.519-23.606-50.999-42.454-12.524-18.915-19.271-41.128-19.364-63.816 0-0.027 0-0.059 0-0.091s0-0.064 0-0.096v0.005-7.182c0-10.121-4.029-19.755-11.182-26.908-7.153-7.11-16.826-11.175-26.911-11.175-10.114 0-19.746 4.022-26.908 11.182-7.155 7.155-11.182 16.791-11.182 26.908v3.818c0.002 0.162 0.003 0.354 0.003 0.546s-0.001 0.383-0.003 0.575v-0.029c-0.546 23.337-8.056 45.921-21.635 64.907-13.288 18.586-32.062 32.483-53.363 40.635-20.882 8.876-43.836 11.955-66.18 7.909 0-0.014 0-0.030 0-0.047s0-0.033 0-0.049v0.003c-22.87-4.147-44.018-15.015-60.634-31.27-0.008-0.006-0.097-0.124-0.186-0.242l-0.087-0.121-2.545-2.546c-0.013 0-0.029 0-0.045 0s-0.032 0-0.048 0h0.002c-3.534-3.539-7.739-6.356-12.364-8.273s-9.541-2.909-14.545-2.909c-5.004 0-9.922 0.992-14.545 2.909-4.625 1.917-8.829 4.733-12.364 8.273-0.013 0-0.029 0-0.045 0s-0.032 0-0.048 0h0.002c-3.531 3.526-6.355 7.738-8.273 12.364-1.916 4.621-2.909 9.634-2.909 14.636 0 5.009 0.993 9.924 2.909 14.545s4.726 8.82 8.273 12.364c0.021 0.022 0.051 0.052 0.081 0.083l0.010 0.011 2.545 2.454c0.008 0.006 0.097 0.124 0.186 0.242l0.087 0.121c16.258 16.615 27.215 37.762 31.363 60.633 4.131 22.782 1.207 46.251-8.091 67.453-8.949 20.753-23.608 38.52-42.454 50.999-18.915 12.525-41.129 19.271-63.816 19.364-0.027 0-0.059 0-0.091 0s-0.064 0-0.096 0h-7.177c-10.122 0-19.755 4.029-26.908 11.182-7.155 7.155-11.182 16.792-11.182 26.908s4.023 19.748 11.182 26.908c7.155 7.155 16.791 11.182 26.908 11.182h3.818c0.162-0.002 0.354-0.003 0.545-0.003s0.383 0.001 0.574 0.003h-0.029c23.337 0.546 45.92 8.055 64.907 21.635 18.576 13.286 32.48 32.056 40.635 53.363 8.877 20.883 11.871 43.83 7.818 66.18-4.147 22.872-15.018 44.018-31.272 60.634-0.122 0.123-0.24 0.242-0.359 0.359l-0.004 0.004-2.546 2.455c0 0.013 0 0.029 0 0.045s0 0.032 0 0.048v-0.002c-3.54 3.536-6.355 7.739-8.273 12.364s-2.909 9.541-2.909 14.545c0 5.004 0.992 9.922 2.909 14.545 1.917 4.625 4.732 8.827 8.273 12.364 0 0.013 0 0.029 0 0.045s0 0.032 0 0.048v-0.002c3.537 3.541 7.741 6.357 12.364 8.273s9.632 2.909 14.636 2.909c5.004 0 9.922-0.992 14.545-2.909s8.827-4.732 12.364-8.273l2.545-2.545c0.122-0.123 0.24-0.242 0.359-0.359l0.004-0.004c16.617-16.254 37.763-27.215 60.634-31.363s46.459-1.295 67.725 8.091l-18.818-4h3.455c6.612 0.028 12.889 1.43 18.571 3.935l-0.298-0.117c20.855 8.938 38.653 23.718 51.181 42.635s19.273 41.128 19.364 63.816c0 0.027 0 0.059 0 0.091s0 0.064 0 0.096v-0.005 7.182c0 10.118 4.027 19.753 11.182 26.908 7.151 7.152 16.792 11.182 26.908 11.182z" />
<glyph unicode="&#xe923;" glyph-name="settings" data-tags="settings" d="M819.187 857.594c-94.388 0-171.028-66.232-194.392-153.594h-573.577c-28.276 0-51.198-22.923-51.198-51.198v0c0-28.276 22.923-51.198 51.198-51.198v0h573.577c23.364-87.361 100.004-153.594 194.392-153.594 112.499 0 204.792 92.295 204.792 204.792s-92.293 204.792-204.792 204.792zM819.187 755.198c57.161 0 102.395-45.237 102.395-102.395s-45.235-102.395-102.395-102.395c-57.161 0-102.395 45.237-102.395 102.395s45.235 102.395 102.395 102.395zM204.813 448.011c-112.495 0-204.792-92.293-204.792-204.792s92.295-204.792 204.792-204.792c94.386 0 171.027 66.231 194.392 153.594h573.577c28.276 0 51.198 22.923 51.198 51.198v0c0 28.276-22.923 51.198-51.198 51.198v0h-573.577c-23.365 87.362-100.006 153.594-194.392 153.594zM204.813 345.615c57.158 0 102.395-45.235 102.395-102.395s-45.237-102.395-102.395-102.395c-57.158 0-102.395 45.235-102.395 102.395s45.237 102.395 102.395 102.395z" />
<glyph unicode="&#xe924;" glyph-name="envelope" data-tags="envelope" d="M269.919 866.83c-78.189 0-123.685 2.388-168.187-20.287-35.021-17.844-63.523-46.346-81.367-81.367-7.333-14.392-3.525-38.743-6.544-54.426-2.063-1.123-3.809-2.242-5.471-3.471l0.127 0.089c-4.016-6.738-6.39-14.86-6.39-23.536 0-8.21 2.126-15.923 5.857-22.619l-0.121 0.237c-0.847-22.178-7.744-34.573-7.744-64.57v-297.762c0-78.193-2.388-123.795 20.287-168.296 17.843-35.019 46.344-63.52 81.367-81.367 44.501-22.667 89.997-20.287 168.187-20.287h484.054c78.187 0 123.796-2.383 168.296 20.287 35.020 17.845 63.412 46.346 81.257 81.367 22.675 44.502 20.396 90.103 20.396 168.296v297.762c0 27.467-6.598 38.33-7.199 59.116 4.451 7.008 7.095 15.544 7.095 24.698 0 9.988-3.147 19.24-8.501 26.82l0.098-0.146c-1.354 0.333-3.059 0.639-4.794 0.851l-0.224 0.022c-2.997 16.522 0.799 41.881-6.871 56.935-17.846 35.021-46.238 63.524-81.257 81.367-44.502 22.678-90.109 20.287-168.296 20.287zM269.919 773.793h484.054c78.187 0 110.758-2.389 125.976-10.144 17.519-8.926 31.757-23.167 40.683-40.683 1.463-2.872 0.863-19.48 1.963-23.777l-351.97-246.39c-30.769-21.538-42.448-28.203-47.446-29.449-7.393-1.843-15.077-1.843-22.469 0-4.994 1.244-16.678 7.911-47.446 29.449l-351.97 246.39c1.102 4.297 0.5 20.906 1.963 23.777 8.926 17.518 23.165 31.758 40.683 40.683 15.226 7.758 47.787 10.144 125.976 10.144zM93.116 591.319l306.815-214.76c30.771-21.54 49.839-36.421 78.313-43.519 22.172-5.529 45.343-5.528 67.515 0 28.476 7.097 47.541 21.979 78.313 43.519l306.706 214.76v-292.2c0-78.193-2.383-110.856-10.144-126.085-8.926-17.518-23.165-31.757-40.683-40.683-15.22-7.754-47.789-10.034-125.976-10.034h-484.054c-78.189 0-110.748 2.386-125.976 10.144-17.485 8.929-31.769 23.079-40.683 40.574-7.759 15.23-10.144 47.893-10.144 126.085z" />
<glyph unicode="&#xe925;" glyph-name="help" data-tags="help" d="M512.075 959.97c-282.217 0-512.045-229.828-512.045-512.045 0-282.22 229.828-511.909 512.045-511.909 282.219 0 511.909 229.69 511.909 511.909 0 282.217-229.689 512.045-511.909 512.045zM512.075 866.834c231.911 0 418.909-187 418.909-418.909 0-231.911-186.998-418.909-418.909-418.909-231.909 0-418.909 186.998-418.909 418.909 0 231.908 187.001 418.909 418.909 418.909zM539.757 724.743c-43.325 7.431-87.829-0.772-125.727-23.045s-66.685-57.261-81.273-98.727c-1.671-4.6-2.638-9.91-2.638-15.445 0-20.134 12.783-37.282 30.677-43.771l0.324-0.103c4.622-1.689 9.959-2.665 15.524-2.665 20.195 0 37.387 12.862 43.829 30.84l0.101 0.325c7.299 20.748 21.674 38.22 40.636 49.364s41.186 15.173 62.864 11.455c21.679-3.719 41.336-14.947 55.5-31.773s21.851-38.143 21.818-60.136c0-23.272-20.14-46.7-49.091-66s-58.636-29.455-58.636-29.455c-18.663-6.346-31.851-23.715-31.851-44.165 0-5.275 0.877-10.345 2.494-15.072l-0.097 0.327c6.358-18.641 23.716-31.811 44.151-31.811 5.23 0 10.257 0.862 14.949 2.452l-0.328-0.096c0 0 40.132 13.119 81 40.364 40.839 27.226 90.477 73.582 90.545 143.318 0.067 43.959-15.464 86.643-43.773 120.273s-67.675 56.114-111 63.545zM512.075 261.788c-0.027 0-0.059 0-0.091 0-25.69 0-46.52-20.813-46.546-46.498v-0.002c0-0.027 0-0.059 0-0.092 0-25.706 20.839-46.546 46.546-46.546 0.032 0 0.064 0 0.096 0h0.404c0.027 0 0.059 0 0.091 0 25.706 0 46.546 20.839 46.546 46.546 0 0.032 0 0.064 0 0.096v-0.005c-0.026 25.687-20.855 46.5-46.546 46.5-0.032 0-0.064 0-0.096 0h0.005z" />
<glyph unicode="&#xe926;" glyph-name="lock" data-tags="lock" d="M512 959.937c-169.010 0-307.117-138.107-307.117-307.117v-113.609c-29.577-2.445-68.391 1.369-92.975-11.157-38.52-19.627-69.869-50.978-89.496-89.496-24.939-48.947-22.314-98.985-22.314-184.99v-20.514c0-85.999-2.626-136.161 22.314-185.11 19.628-38.52 50.98-69.87 89.496-89.496 48.949-24.942 99.109-22.314 185.11-22.314h429.964c85.999 0 136.16-2.627 185.11 22.314 38.517 19.627 69.869 50.979 89.496 89.496 24.941 48.95 22.314 99.111 22.314 185.11v20.514c0 86.005 2.626 136.042-22.314 184.99-19.626 38.514-50.974 69.868-89.496 89.496-24.584 12.526-63.398 8.712-92.975 11.157v113.609c0 169.010-138.107 307.117-307.117 307.117zM512 857.484c113.685 0 204.785-90.981 204.785-204.665v-102.452h-409.57v102.452c0 113.684 91.101 204.665 204.785 204.665zM297.018 448.035h429.964c85.999 0 121.814-2.624 138.563-11.157 19.266-9.816 34.927-25.475 44.748-44.748 8.536-16.751 11.157-52.558 11.157-138.563v-20.514c0-85.999-2.622-121.814-11.157-138.563-9.819-19.27-25.478-34.929-44.748-44.748-16.749-8.534-52.564-11.157-138.563-11.157h-429.964c-86.001 0-121.815 2.624-138.563 11.157-19.272 9.821-34.931 25.481-44.748 44.748-8.533 16.749-11.157 52.564-11.157 138.563v20.514c0 86.005 2.622 121.812 11.157 138.563 9.818 19.269 25.481 34.931 44.748 44.748 16.747 8.533 52.561 11.157 138.563 11.157z" />
<glyph unicode="&#xe927;" glyph-name="check" data-tags="check" d="M933.648 828.176c-24.947-0.004-47.531-10.118-63.878-26.469l-515.79-515.79-199.575 199.575c-16.358 16.398-38.977 26.543-63.967 26.543s-47.609-10.145-63.964-26.542l-0.002-0.002c-16.346-16.349-26.455-38.933-26.455-63.878s10.11-47.53 26.455-63.879l263.63-263.453c16.35-16.343 38.934-26.451 63.878-26.451s47.528 10.108 63.879 26.452l579.667 579.667c16.346 16.349 26.455 38.933 26.455 63.878s-10.11 47.53-26.455 63.879v0c-16.347 16.351-38.931 26.465-63.878 26.469h-0.001z" />
<glyph unicode="&#xe928;" glyph-name="field" data-tags="field" d="M499.092 723.344c-11.981-2.246-18.439-6.311-24.545-9.363l-448.802-224.356c-15.379-7.813-25.733-23.515-25.733-41.635s10.353-33.822 25.469-41.513l0.264-0.122 448.802-224.356c6.107-3.053 12.564-7.117 24.545-9.363 0.014 0 0.031 0 0.047 0s0.033 0 0.049 0h-0.002c8.504-1.592 17.131-1.592 25.635 0 0.014 0 0.031 0 0.047 0s0.033 0 0.049 0h-0.002c11.981 2.247 18.438 6.31 24.545 9.363l448.802 224.356c15.379 7.813 25.733 23.515 25.733 41.635s-10.353 33.822-25.469 41.513l-0.264 0.122-448.806 224.356c-6.106 3.052-12.564 7.117-24.545 9.363-8.522 1.601-17.295 1.601-25.818 0zM512 628.62l361.35-180.629-361.35-180.721-361.35 180.721z" />
<glyph unicode="&#xe929;" glyph-name="user" data-tags="user" d="M512 959.992c-154.899 0-281.608-126.708-281.608-281.608s126.709-281.608 281.608-281.608c154.898 0 281.608 126.708 281.608 281.608s-126.711 281.608-281.608 281.608zM512 857.524c99.561 0 179.14-79.576 179.14-179.14s-79.579-179.14-179.14-179.14c-99.564 0-179.26 79.575-179.26 179.14s79.696 179.14 179.26 179.14zM383.974 319.984c-71.445 0-110.847 1.158-151.063-11.039-81.748-24.801-145.822-88.866-170.621-170.621-12.201-40.216-11.039-79.616-11.039-151.063 0-0.012 0-0.026 0-0.040 0-28.274 22.921-51.195 51.195-51.195 0.014 0 0.028 0 0.042 0h-0.002c28.239 0.046 51.114 22.949 51.114 51.195 0 0.014 0 0.028 0 0.042v-0.002c0 71.447 1.165 103.515 6.599 121.426 14.907 49.145 53.323 87.439 102.468 102.348 17.921 5.435 49.862 6.599 121.306 6.599h255.931c71.447 0 103.512-1.166 121.426-6.599 49.149-14.91 87.439-53.2 102.348-102.348 5.434-17.914 6.599-49.979 6.599-121.426 0-0.012 0-0.026 0-0.040 0-28.274 22.921-51.195 51.195-51.195 0.014 0 0.028 0 0.042 0h-0.002c0.012 0 0.026 0 0.040 0 28.274 0 51.195 22.921 51.195 51.195 0 0.014 0 0.028 0 0.042v-0.002c0 71.447 1.159 110.848-11.039 151.063-24.8 81.753-88.868 145.821-170.621 170.621-40.215 12.198-79.736 11.039-151.183 11.039z" />
<glyph unicode="&#xe92a;" glyph-name="eye" data-tags="eye" d="M511.989 827.648c-269.003 0-434.311-228.090-490.415-316.925-6.305-9.983-14.63-23.285-18.445-39.928-4.167-18.182-4.167-27.387 0-45.569 3.816-16.636 12.138-29.94 18.445-39.928 56.104-88.836 221.411-316.925 490.415-316.925 269.006 0 434.42 228.086 490.523 316.925 6.311 9.993 14.52 23.307 18.336 39.928 4.178 18.2 4.178 27.37 0 45.569-3.815 16.626-12.027 29.939-18.336 39.928-56.103 88.838-221.517 316.925-490.523 316.925zM511.989 716.545c203.647 0 348.473-189.022 396.563-265.171 3.91-6.191 2.577-3.735 2.495-3.363 0.078 0.369 1.414 2.825-2.495-3.363-48.089-76.149-192.916-265.171-396.563-265.171-203.642 0-348.47 189.020-396.563 265.171-3.91 6.192-2.577 3.736-2.495 3.363-0.082-0.372-1.417-2.831 2.495 3.363 48.093 76.151 192.921 265.171 396.563 265.171zM511.989 642.441c-106.722 0-194.43-87.707-194.43-194.43s87.708-194.43 194.43-194.43c106.723 0 194.43 87.707 194.43 194.43s-87.707 194.43-194.43 194.43zM511.989 531.338c46.677 0 83.327-36.648 83.327-83.327 0-46.677-36.65-83.327-83.327-83.327-46.675 0-83.327 36.65-83.327 83.327 0 46.679 36.651 83.327 83.327 83.327z" />
<glyph unicode="&#xe92b;" glyph-name="clock" data-tags="clock" d="M512 959.969c-282.194 0-511.917-229.834-511.917-512.026s229.724-511.917 511.917-511.917c282.195 0 511.917 229.726 511.917 511.917s-229.724 512.026-511.917 512.026zM512 866.813c231.889 0 418.871-186.983 418.871-418.871s-186.982-418.871-418.871-418.871-418.871 186.986-418.871 418.871c0 231.887 186.983 418.871 418.871 418.871zM512 773.767c-0.011 0-0.024 0-0.036 0-25.704 0-46.542-20.838-46.542-46.542 0-0.013 0-0.025 0-0.038v0.002-279.247c0.032-18.093 10.381-33.762 25.478-41.438l0.265-0.122 186.201-93.155c6.052-3.084 13.199-4.89 20.768-4.89 18.116 0 33.815 10.351 41.504 25.461l0.122 0.264c3.124 6.086 4.956 13.278 4.956 20.899 0 18.099-10.331 33.785-25.418 41.482l-0.264 0.122-160.458 80.175v250.45c0 0.011 0 0.024 0 0.036 0 25.704-20.838 46.542-46.542 46.542-0.013 0-0.025 0-0.038 0h0.002z" />
<glyph unicode="&#xe92c;" glyph-name="modem" data-tags="modem" d="M840.015 959.96c-0.009 0-0.018 0-0.029 0-12.812 0-24.41-5.194-32.805-13.59v0c-8.414-8.398-13.62-20.008-13.62-32.834s5.206-24.436 13.619-32.833l0.001-0.001c158.341-158.341 160.513-409.331 12.068-573.51h-260.825v278.329c0 0.011 0 0.024 0 0.036 0 25.619-20.769 46.389-46.389 46.389-0.013 0-0.025 0-0.038 0h0.002c-0.011 0-0.024 0-0.036 0-25.619 0-46.389-20.769-46.389-46.389 0-0.013 0-0.025 0-0.038v0.002-278.329h-260.825c-148.445 164.178-146.272 415.17 12.068 573.51 8.414 8.398 13.62 20.008 13.62 32.834s-5.206 24.436-13.619 32.833l-0.001 0.001c-8.398 8.414-20.008 13.62-32.834 13.62s-24.436-5.206-32.833-13.619l-0.001-0.001c-177.195-177.195-187.603-449.355-49.034-648.202-4.258-1.248-10.125 0.273-14.46-1.522-34.090-14.115-61.228-41.261-75.344-75.344-12.37-29.857-10.546-56.468-10.546-99.698s-1.819-69.737 10.546-99.59c14.116-34.083 41.255-61.229 75.344-75.344 29.857-12.37 56.362-10.546 99.59-10.546h649.506c43.23 0 69.732-1.824 99.59 10.546 34.083 14.116 61.225 41.262 75.344 75.344 12.356 29.849 10.546 56.359 10.546 99.59s1.817 69.845-10.546 99.698c-14.12 34.082-41.261 61.228-75.344 75.344-4.335 1.796-10.202 0.273-14.46 1.522 138.57 198.846 128.162 471.006-49.034 648.202-8.394 8.397-19.993 13.59-32.805 13.59-0.010 0-0.021 0-0.030 0h0.001zM315.213 828.732c-0.009 0-0.018 0-0.029 0-12.812 0-24.41-5.194-32.805-13.59v0c-126.421-126.421-126.421-332.819 0-459.243 8.392-8.381 19.981-13.565 32.78-13.565s24.387 5.184 32.78 13.565v0c8.447 8.403 13.674 20.035 13.674 32.888 0 12.799-5.184 24.387-13.565 32.781v0c-90.968 90.969-90.967 237.048 0 328.015 8.381 8.392 13.565 19.981 13.565 32.78s-5.184 24.387-13.565 32.78v0c-8.394 8.397-19.993 13.59-32.805 13.59-0.010 0-0.021 0-0.030 0h0.001zM708.787 828.732c-12.782-0.023-24.348-5.212-32.725-13.59v0c-8.381-8.392-13.565-19.981-13.565-32.78s5.184-24.387 13.565-32.78v0c90.966-90.967 90.967-237.046 0-328.015-8.414-8.398-13.62-20.008-13.62-32.834s5.206-24.436 13.619-32.833l0.001-0.001c8.392-8.381 19.981-13.565 32.78-13.565s24.387 5.184 32.78 13.565v0c126.419 126.423 126.42 332.821 0 459.243-8.394 8.397-19.993 13.59-32.805 13.59-0.010 0-0.021 0-0.030 0h0.001zM187.247 214.452h649.506c43.23 0 59.903-1.83 64.146-3.588 11.372-4.71 20.397-13.729 25.115-25.115 1.755-4.237 3.479-20.916 3.479-64.146s-1.719-59.894-3.479-64.146c-4.717-11.385-13.742-20.296-25.115-25.006-4.243-1.758-20.916-3.588-64.146-3.588h-649.506c-43.228 0-59.905 1.722-64.146 3.479 0 0.016 0 0.036 0 0.055s0 0.039 0 0.059v-0.003c-11.376 4.708-20.4 13.62-25.115 25.004-1.759 4.248-3.479 20.916-3.479 64.146s1.725 59.914 3.479 64.146c4.715 11.384 13.739 20.404 25.115 25.115 4.241 1.757 20.918 3.588 64.146 3.588z" />
<glyph unicode="&#xe92d;" glyph-name="moon-star" data-tags="moon-star" d="M791.277 959.993c-0.009 0-0.020 0-0.031 0-18.124 0-33.829-10.359-41.518-25.479l-0.122-0.265-28.689-57.488c-12.354-24.713-17.496-34.256-22.035-40.143-4.873-6.323-10.567-12.019-16.908-16.908-5.891-4.541-15.43-9.679-40.143-22.035l-57.597-28.798c-15.358-7.819-25.696-23.51-25.696-41.616s10.337-33.797 25.432-41.494l0.264-0.122 57.597-28.689c24.713-12.356 34.254-17.495 40.143-22.035 6.34-4.888 12.035-10.586 16.908-16.908 4.539-5.887 9.681-15.43 22.035-40.143l28.689-57.597c7.8-15.418 23.522-25.805 41.67-25.805s33.872 10.386 41.548 25.539l0.122 0.265 28.689 57.597c12.354 24.713 17.496 34.256 22.035 40.143 4.891 6.342 10.575 12.026 16.908 16.908 5.883 4.536 15.432 9.677 40.143 22.035l57.488 28.689c15.358 7.819 25.696 23.51 25.696 41.616s-10.337 33.797-25.432 41.494l-0.264 0.122-57.488 28.798c-24.711 12.358-34.259 17.499-40.143 22.035-6.335 4.884-12.017 10.566-16.908 16.908-4.539 5.887-9.681 15.43-22.035 40.143l-28.689 57.488c-7.81 15.385-23.515 25.744-41.64 25.744-0.011 0-0.022 0-0.032 0h0.002zM791.277 812.619c5.814-10.996 11.563-23.636 18.653-32.835 9.764-12.66 21.15-24.051 33.816-33.816 9.198-7.091 21.841-12.839 32.835-18.653-10.994-5.814-23.635-11.562-32.835-18.653-12.667-9.765-24.052-21.156-33.816-33.816-7.091-9.198-12.839-21.839-18.653-32.835-5.814 10.996-11.563 23.636-18.653 32.835-9.772 12.68-21.156 24.056-33.816 33.816-9.195 7.088-21.839 12.838-32.835 18.653 10.995 5.815 23.64 11.565 32.835 18.653 12.659 9.76 24.044 21.136 33.816 33.816 7.091 9.198 12.839 21.839 18.653 32.835zM442.969 913.304c-248.391-23.551-442.884-233.353-442.884-487.5 0-269.9 219.779-489.791 489.681-489.791 254.137 0 463.928 194.622 487.5 442.993 0.134 1.328 0.211 2.868 0.211 4.428 0 25.708-20.84 46.548-46.548 46.548-17.268 0-32.34-9.403-40.374-23.368l-0.12-0.226c-53.002-92.965-152.634-155.664-267.694-155.664-170.647 0-308.055 137.304-308.055 307.946 0 115.070 62.796 214.809 155.773 267.803 14.204 8.152 23.617 23.231 23.617 40.508 0 25.708-20.84 46.548-46.548 46.548-1.606 0-3.192-0.082-4.756-0.24l0.196 0.016zM272.36 750.768c-31.48-57.287-50.724-122.311-50.724-192.098 0-220.95 180.15-400.996 401.105-400.996 69.779 0 134.707 19.142 191.989 50.615-71.085-105.951-187.354-179.117-324.963-179.117-219.595 0-396.632 177.040-396.632 396.632 0 137.634 73.238 253.885 179.226 324.963z" />
<glyph unicode="&#xe92e;" glyph-name="sun" data-tags="sun" d="M511.99 959.983c-0.011 0-0.024 0-0.036 0-25.68 0-46.502-20.797-46.543-46.466v-93.163c0-0.011 0-0.024 0-0.036 0-25.705 20.838-46.543 46.543-46.543 0.013 0 0.025 0 0.038 0h-0.002c0.011 0 0.024 0 0.036 0 25.705 0 46.543 20.838 46.543 46.543 0 0.013 0 0.025 0 0.038v-0.002 93.158c-0.041 25.673-20.864 46.47-46.543 46.47-0.013 0-0.025 0-0.038 0h0.002zM148.629 811.409c-8.409-8.42-13.611-20.048-13.611-32.889s5.201-24.469 13.611-32.889l65.778-65.887c8.426-8.442 20.075-13.665 32.944-13.665s24.518 5.223 32.943 13.664l0.001 0.001c8.442 8.426 13.665 20.075 13.665 32.944s-5.223 24.518-13.664 32.943l-65.888 65.779c-8.42 8.409-20.048 13.611-32.889 13.611s-24.469-5.201-32.889-13.611v0zM809.573 811.409l-65.887-65.778c-8.442-8.426-13.665-20.075-13.665-32.944s5.223-24.518 13.664-32.943l0.001-0.001c8.426-8.442 20.075-13.665 32.944-13.665s24.518 5.223 32.943 13.664l65.779 65.888c8.409 8.42 13.611 20.048 13.611 32.889s-5.201 24.469-13.611 32.889v0c-8.42 8.409-20.048 13.611-32.889 13.611s-24.469-5.201-32.889-13.611v0zM511.99 727.305c-153.679 0-279.257-125.581-279.257-279.257 0-153.679 125.578-279.257 279.257-279.257 153.676 0 279.257 125.578 279.257 279.257s-125.581 279.257-279.257 279.257zM511.99 634.147c103.368 0 186.208-82.73 186.208-186.099 0-103.371-82.84-186.208-186.208-186.208-103.371 0-186.208 82.836-186.208 186.208 0 103.369 82.837 186.099 186.208 186.099zM46.526 494.627c-25.673-0.041-46.47-20.864-46.47-46.543 0-0.013 0-0.025 0-0.038v0.002c0-0.011 0-0.024 0-0.036 0-25.68 20.797-46.502 46.466-46.543h93.163c25.673 0.041 46.47 20.864 46.47 46.543 0 0.013 0 0.025 0 0.038v-0.002c0 0.011 0 0.024 0 0.036 0 25.68-20.797 46.502-46.466 46.543h-0.004zM884.296 494.627c-25.674-0.041-46.47-20.864-46.47-46.543 0-0.013 0-0.025 0-0.038v0.002c0-0.011 0-0.024 0-0.036 0-25.68 20.797-46.502 46.466-46.543h93.163c25.674 0.041 46.47 20.864 46.47 46.543 0 0.013 0 0.025 0 0.038v-0.002c0 0.011 0 0.024 0 0.036 0 25.68-20.797 46.502-46.466 46.543h-0.004zM247.351 229.769c-0.009 0-0.019 0-0.029 0-12.855 0-24.492-5.211-32.914-13.636v0l-65.778-65.887c-8.409-8.42-13.611-20.048-13.611-32.889s5.201-24.469 13.611-32.889v0c8.42-8.409 20.048-13.611 32.889-13.611s24.469 5.201 32.889 13.611l65.887 65.778c8.442 8.426 13.665 20.075 13.665 32.944s-5.223 24.518-13.664 32.943l-0.001 0.001c-8.422 8.425-20.060 13.636-32.914 13.636-0.010 0-0.021 0-0.031 0h0.002zM776.63 229.769c-0.009 0-0.019 0-0.029 0-12.855 0-24.492-5.211-32.914-13.636v0c-8.442-8.426-13.665-20.075-13.665-32.944s5.223-24.518 13.664-32.943l65.888-65.779c8.42-8.409 20.048-13.611 32.889-13.611s24.469 5.201 32.889 13.611v0c8.409 8.42 13.611 20.048 13.611 32.889s-5.201 24.469-13.611 32.889l-65.778 65.887c-8.422 8.425-20.060 13.636-32.914 13.636-0.010 0-0.021 0-0.031 0h0.002zM511.99 122.212c-0.011 0-0.024 0-0.036 0-25.705 0-46.543-20.838-46.543-46.543 0-0.013 0-0.025 0-0.038v0.002-93.049c0-0.011 0-0.024 0-0.036 0-25.705 20.838-46.543 46.543-46.543 0.013 0 0.025 0 0.038 0h-0.002c0.011 0 0.024 0 0.036 0 25.705 0 46.543 20.838 46.543 46.543 0 0.013 0 0.025 0 0.038v-0.002 93.049c0 0.011 0 0.024 0 0.036 0 25.705-20.838 46.543-46.543 46.543-0.013 0-0.025 0-0.038 0h0.002z" />
<glyph unicode="&#xe92f;" glyph-name="sunset" data-tags="sunset" d="M511.99 959.983c-0.011 0-0.024 0-0.036 0-25.68 0-46.502-20.797-46.543-46.466v-213.374l-106.685 106.576c-8.42 8.409-20.048 13.611-32.889 13.611s-24.469-5.201-32.889-13.611v0c-8.409-8.42-13.611-20.048-13.611-32.889s5.201-24.469 13.611-32.889l186.099-186.208c8.426-8.442 20.075-13.665 32.944-13.665s24.518 5.223 32.943 13.664l186.1 186.209c8.409 8.42 13.611 20.048 13.611 32.889s-5.201 24.469-13.611 32.889v0c-8.42 8.409-20.048 13.611-32.889 13.611s-24.469-5.201-32.889-13.611l-106.685-106.576v213.37c-0.041 25.673-20.864 46.47-46.543 46.47-0.013 0-0.025 0-0.038 0h0.002zM181.572 545.788c-0.009 0-0.019 0-0.029 0-12.855 0-24.492-5.211-32.914-13.636v0c-8.409-8.42-13.611-20.048-13.611-32.889s5.201-24.469 13.611-32.889l65.778-65.887c8.426-8.442 20.075-13.665 32.944-13.665s24.518 5.223 32.943 13.664l0.001 0.001c8.442 8.426 13.665 20.075 13.665 32.944s-5.223 24.518-13.664 32.943l-65.888 65.779c-8.405 8.406-20.009 13.613-32.83 13.636h-0.004zM809.573 532.152l-65.887-65.778c-8.442-8.426-13.665-20.075-13.665-32.944s5.223-24.518 13.664-32.943l0.001-0.001c8.426-8.442 20.075-13.665 32.944-13.665s24.518 5.223 32.943 13.664l65.779 65.888c8.409 8.42 13.611 20.048 13.611 32.889s-5.201 24.469-13.611 32.889v0c-8.42 8.409-20.048 13.611-32.889 13.611s-24.469-5.201-32.889-13.611v0zM511.99 448.048c-153.678 0-279.257-125.578-279.257-279.257 0-0.011 0-0.024 0-0.036 0-25.705 20.838-46.543 46.543-46.543 0.013 0 0.025 0 0.038 0h-0.002c25.673 0.041 46.47 20.864 46.47 46.543 0 0.013 0 0.025 0 0.038v-0.002c0 103.372 82.836 186.099 186.208 186.099 103.369 0 186.208-82.728 186.208-186.099 0-0.011 0-0.024 0-0.036 0-25.68 20.797-46.502 46.466-46.543h0.004c0.011 0 0.024 0 0.036 0 25.705 0 46.543 20.838 46.543 46.543 0 0.013 0 0.025 0 0.038v-0.002c0 153.679-125.582 279.257-279.257 279.257zM46.526 215.37c-25.673-0.041-46.47-20.864-46.47-46.543 0-0.013 0-0.025 0-0.038v0.002c0-0.011 0-0.024 0-0.036 0-25.68 20.797-46.502 46.466-46.543h93.163c25.673 0.041 46.47 20.864 46.47 46.543 0 0.013 0 0.025 0 0.038v-0.002c0 0.011 0 0.024 0 0.036 0 25.68-20.797 46.502-46.466 46.543h-0.004zM884.296 215.37c-25.674-0.041-46.47-20.864-46.47-46.543 0-0.013 0-0.025 0-0.038v0.002c0-0.011 0-0.024 0-0.036 0-25.68 20.797-46.502 46.466-46.543h93.163c25.674 0.041 46.47 20.864 46.47 46.543 0 0.013 0 0.025 0 0.038v-0.002c0 0.011 0 0.024 0 0.036 0 25.68-20.797 46.502-46.466 46.543h-0.004zM46.526 29.163c-25.673-0.041-46.47-20.864-46.47-46.543 0-0.013 0-0.025 0-0.038v0.002c0-0.011 0-0.024 0-0.036 0-25.68 20.796-46.502 46.466-46.543h930.934c25.674 0.041 46.47 20.864 46.47 46.543 0 0.013 0 0.025 0 0.038v-0.002c0 0.011 0 0.024 0 0.036 0 25.68-20.797 46.502-46.466 46.543h-0.004z" />
<glyph unicode="&#xe930;" glyph-name="key" data-tags="key" d="M665.659 959.989c-197.272 0-358.33-161.058-358.33-358.33 0-16.293 1.12-32.344 3.239-48.106 2.987-22.222 2.528-33.759 3.599-26.272 2.047 3.662-1.103-1.103-13.316-13.316l-261.639-261.639c-8.842-8.848-16.399-15.635-23.873-27.832-5.608-9.156-9.729-19.188-12.236-29.63-3.337-13.895-2.879-24.065-2.879-36.589v-88.892c0-28.665-2.619-50.214 11.156-77.257 9.811-19.257 25.49-34.934 44.746-44.746 27.047-13.777 48.59-11.156 77.257-11.156h88.892c12.519 0 22.701-0.455 36.589 2.878 10.461 2.509 20.478 6.626 29.63 12.236 12.205 7.473 18.984 15.027 27.832 23.873l261.639 261.639c12.156 12.155 16.766 15.306 13.196 13.316 0.018 0 0.040 0 0.062 0s0.043 0 0.065 0h-0.003c-7.482-1.072 4.054-0.608 26.272-3.599 15.745-2.112 31.806-3.239 48.106-3.239 197.271 0 358.33 161.058 358.33 358.33s-161.060 358.33-358.33 358.33zM665.659 857.541c141.946 0 255.881-113.934 255.881-255.881s-113.935-255.881-255.881-255.881c-11.681 0-23.199 0.778-34.43 2.279h-0.123c-22.128 2.987-32.844 6.438-54.343 3.359-10.804-1.541-25.983-6.669-35.509-11.996-16.059-8.975-23.538-18.020-35.749-30.231l-261.519-261.519c-8.858-8.855-10.871-10.145-8.997-8.997 2.108 0.503-0.198 0-12.716 0h-88.89c-28.666 0-35.859 2.623-30.71 0 2.618-5.139 0 2.045 0 30.71v88.892c0 12.524 0.507 14.83 0 12.716-1.143-1.866 0.136 0.128 8.997 8.997l261.519 261.519c12.21 12.211 21.254 19.69 30.231 35.749 5.322 9.522 10.452 24.709 11.996 35.509 3.081 21.547-0.371 32.242-3.359 54.463-1.514 11.26-2.279 22.705-2.279 34.43 0 141.947 113.934 255.881 255.881 255.881zM665.659 652.884c-0.012 0-0.026 0-0.040 0-28.268 0-51.185-22.916-51.185-51.185 0-0.014 0-0.028 0-0.042v0.002c0-0.012 0-0.026 0-0.040 0-28.268 22.916-51.185 51.185-51.185 0.014 0 0.028 0 0.042 0h0.477c0.012 0 0.026 0 0.041 0 28.268 0 51.185 22.916 51.185 51.185 0 0.014 0 0.028 0 0.042v-0.002c0 0.012 0 0.026 0 0.040 0 28.268-22.916 51.185-51.185 51.185-0.014 0-0.028 0-0.042 0h0.002z" />
<glyph unicode="&#xe931;" glyph-name="lightning_line" data-tags="lightning_line" d="M557.717 959.976c-14.013-0.251-26.481-6.657-34.851-16.619l-0.058-0.072-113.019-135.6c-6.704-8.008-10.776-18.42-10.776-29.783 0-14.35 6.494-27.183 16.702-35.721l0.074-0.060c8.008-6.704 18.42-10.776 29.783-10.776 14.35 0 27.183 6.494 35.721 16.703l0.060 0.074 11.236 13.528-8.182-65.782c-0.226-1.721-0.354-3.713-0.354-5.734 0-23.691 17.699-43.248 40.597-46.169l0.231-0.024c1.721-0.226 3.713-0.354 5.734-0.354 23.691 0 43.248 17.699 46.169 40.597l0.024 0.231 27.927 223.31c0.224 1.715 0.351 3.699 0.351 5.711 0 25.709-20.841 46.55-46.55 46.55-0.288 0-0.576-0.003-0.862-0.008l0.044 0.001zM93.097 913.394c-0.041 0-0.090 0-0.139 0-12.801 0-24.395-5.167-32.809-13.53l0.002 0.002c-8.442-8.427-13.666-20.077-13.666-32.945s5.223-24.519 13.664-32.945l202.693-202.693-154.582-185.455c-8.118-9.741-14.652-17.338-20.836-26.291s-14.111-21.114-14.4-40.255c-0.323-21.417 9.199-41.957 25.854-55.419 14.888-12.032 29.308-13.746 40.146-14.728s20.92-0.764 33.6-0.764h286.692l-40.037-320.074c-0.225-1.719-0.353-3.708-0.353-5.727 0-25.709 20.841-46.55 46.55-46.55 14.322 0 27.133 6.468 35.672 16.642l0.059 0.072 200.074 240.11 196.691-196.692c8.427-8.442 20.077-13.666 32.945-13.666s24.519 5.223 32.945 13.664l0.001 0.001c8.442 8.427 13.666 20.077 13.666 32.945s-5.223 24.519-13.664 32.945l-837.822 837.822c-8.412 8.36-20.006 13.528-32.807 13.528-0.049 0-0.097 0-0.146 0h0.007zM681.863 587.647c-25.675-0.041-46.473-20.865-46.473-46.545 0-0.012 0-0.026 0-0.038v0.002c0-0.010 0-0.024 0-0.036 0-25.681 20.798-46.504 46.469-46.545h149.677l-50.401-60.437c-6.704-8.008-10.776-18.42-10.776-29.783 0-14.35 6.494-27.183 16.702-35.721l0.074-0.060c8.008-6.704 18.42-10.776 29.783-10.776 14.35 0 27.183 6.494 35.721 16.702l0.060 0.074 63.055 75.71c8.119 9.743 14.652 17.336 20.836 26.291s14.114 21.115 14.4 40.255c0.317 21.398-9.186 41.949-25.854 55.419-14.886 12.027-29.308 13.638-40.146 14.618s-20.918 0.873-33.6 0.873zM328.953 565.175l163.746-163.746h-300.219zM556.736 337.392l78.436-78.436-103.855-124.692z" />
<glyph unicode="&#xe932;" glyph-name="lightning_squared" data-tags="lightning_squared" d="M297.042 959.901c-86.007 0-136.213 2.646-185.164-22.296-38.523-19.628-69.854-50.96-89.483-89.483-24.942-48.952-22.296-99.157-22.296-185.164v-429.917c0-86.009-2.643-136.213 22.296-185.164 19.628-38.524 50.961-69.856 89.483-89.483 48.953-24.944 99.157-22.296 185.164-22.296h429.917c86.009 0 136.213-2.645 185.164 22.296 38.524 19.627 69.855 50.959 89.483 89.483 24.941 48.952 22.296 99.155 22.296 185.164v429.917c0 86.007 2.648 136.212-22.296 185.164-19.626 38.522-50.959 69.854-89.483 89.483-48.952 24.939-99.155 22.296-185.164 22.296zM297.042 857.521h429.917c86.009 0 121.917-2.661 138.673-11.198 19.269-9.818 34.873-25.421 44.691-44.691 8.534-16.748 11.198-52.666 11.198-138.673v-429.917c0-86.009-2.66-121.917-11.198-138.673-9.818-19.27-25.421-34.873-44.691-44.691-16.756-8.537-52.664-11.198-138.673-11.198h-429.917c-86.007 0-121.925 2.663-138.673 11.198-19.27 9.818-34.873 25.422-44.691 44.691-8.536 16.756-11.198 52.664-11.198 138.673v429.917c0 86.007 2.664 121.924 11.198 138.673 9.818 19.27 25.421 34.873 44.691 44.691 16.749 8.533 52.666 11.198 138.673 11.198zM527.897 803.731c-4.764 1.618-10.252 2.551-15.959 2.551-16.853 0-31.804-8.143-41.133-20.71l-0.098-0.138-233.755-318.738c-7.706-10.508-13.965-18.837-19.896-28.694s-13.461-23.468-12.897-43.392c0.649-22.89 11.62-44.327 29.694-58.389 15.735-12.236 31.137-14.251 42.592-15.297s21.764-0.9 34.793-0.9h149.571v-179.165c0-0.007 0-0.015 0-0.023 0-28.275 22.921-51.195 51.195-51.195 16.887 0 31.864 8.175 41.189 20.785l0.098 0.139 233.755 318.738c7.703 10.505 13.964 18.838 19.896 28.694s13.367 23.453 12.798 43.392h0.102c-0.647 22.913-11.64 44.335-29.696 58.389-15.739 12.244-31.136 14.251-42.592 15.297s-21.766 0.9-34.793 0.9h-149.571v179.165c-0.033 22.56-14.653 41.697-34.932 48.486l-0.361 0.105zM460.81 598.771v-73.986c0.003-28.271 22.92-51.187 51.19-51.19h180.465l-129.275-176.366v73.986c-0.003 28.271-22.92 51.187-51.19 51.19h-180.465z" />
<glyph unicode="&#xe933;" glyph-name="lightning" data-tags="lightning" d="M556.67 959.974c-16.52-0.307-31.213-7.87-41.068-19.627l-0.069-0.085-407.091-488.51c-7.972-9.566-14.403-17.069-20.89-26.461s-15.527-22.818-15.855-44.565c-0.359-23.832 10.391-46.619 28.925-61.599 16.916-13.671 32.984-15.362 44.352-16.391s21.293-0.964 33.746-0.964h271.144l-38.030-303.926c-0.283-2.093-0.445-4.514-0.445-6.971 0-30.296 24.56-54.856 54.856-54.856 16.94 0 32.086 7.679 42.148 19.744l0.071 0.088 407.091 488.616c7.974 9.568 14.403 17.067 20.89 26.461s15.531 22.82 15.855 44.565c0.372 23.867-10.283 46.62-28.818 61.599-0.016 0-0.036 0-0.055 0s-0.039 0-0.058 0h0.003c-16.912 13.665-32.982 15.362-44.349 16.391s-21.292 0.857-33.746 0.857h-271.144l38.030 304.033c0.266 2.028 0.417 4.373 0.417 6.754 0 30.296-24.56 54.856-54.856 54.856-0.37 0-0.741-0.004-1.11-0.011l0.055 0.001zM480.073 726.433l-22.497-180.084c-0.274-2.057-0.429-4.435-0.429-6.85 0-30.295 24.557-54.854 54.85-54.856h294.284l-262.359-314.853 22.497 180.084c0.265 2.025 0.416 4.367 0.416 6.743 0 30.29-24.55 54.845-54.837 54.856h-294.392z" />
<glyph unicode="&#xe934;" glyph-name="sunrise" data-tags="sunrise" d="M512.009 959.992c-12.852-0.002-24.487-5.212-32.908-13.636l-186.176-186.176c-8.42-8.423-13.629-20.057-13.629-32.908s5.208-24.486 13.629-32.908v0c8.423-8.42 20.057-13.629 32.908-13.629s24.486 5.208 32.908 13.629l106.723 106.723v-213.448c0-25.705 20.839-46.544 46.544-46.544v0c25.705 0 46.544 20.839 46.544 46.544v0 213.448l106.723-106.723c8.423-8.42 20.057-13.629 32.908-13.629s24.486 5.208 32.908 13.629v0c8.42 8.423 13.629 20.057 13.629 32.908s-5.208 24.486-13.629 32.908l-186.176 186.176c-8.422 8.424-20.056 13.634-32.907 13.636v0zM148.657 532.097c-8.42-8.423-13.629-20.057-13.629-32.908s5.208-24.486 13.629-32.908l65.816-65.816c8.423-8.42 20.057-13.629 32.908-13.629s24.486 5.208 32.908 13.629v0c8.42 8.423 13.629 20.057 13.629 32.908s-5.208 24.486-13.629 32.908l-65.816 65.816c-8.423 8.42-20.057 13.629-32.908 13.629s-24.486-5.208-32.908-13.629v0zM809.545 532.097l-65.816-65.816c-8.42-8.423-13.629-20.057-13.629-32.908s5.208-24.486 13.629-32.908v0c8.423-8.42 20.057-13.629 32.908-13.629s24.486 5.208 32.908 13.629l65.816 65.816c8.42 8.423 13.629 20.057 13.629 32.908s-5.208 24.486-13.629 32.908v0c-8.423 8.42-20.057 13.629-32.908 13.629s-24.486-5.208-32.908-13.629v0zM512.009 448.009c-153.682 0-279.264-125.582-279.264-279.264 0-25.705 20.839-46.544 46.544-46.544v0c25.705 0 46.544 20.839 46.544 46.544v0c0 103.372 82.803 186.176 186.176 186.176 103.371 0 186.176-82.804 186.176-186.176 0-25.705 20.839-46.544 46.544-46.544v0c25.705 0 46.544 20.839 46.544 46.544v0c0 153.681-125.582 279.264-279.264 279.264zM46.569 215.289c-25.705 0-46.544-20.839-46.544-46.544v0c0-25.705 20.839-46.544 46.544-46.544v0h93.088c25.705 0 46.544 20.839 46.544 46.544v0c0 25.705-20.839 46.544-46.544 46.544v0zM884.36 215.289c-25.705 0-46.544-20.839-46.544-46.544v0c0-25.705 20.839-46.544 46.544-46.544v0h93.088c25.705 0 46.544 20.839 46.544 46.544v0c0 25.705-20.839 46.544-46.544 46.544v0zM46.569 29.113c-25.705 0-46.544-20.839-46.544-46.544v0c0-25.705 20.839-46.544 46.544-46.544v0h930.879c25.705 0 46.544 20.839 46.544 46.544v0c0 25.705-20.839 46.544-46.544 46.544v0z" />
<glyph unicode="&#xe935;" glyph-name="alert-triangle" data-tags="alert-triangle" d="M475.126 894.997c-36.196-16.091-44.666-42.598-65.318-78.275l-373.715-645.548c-20.73-35.805-39.617-56.345-35.499-95.847 2.671-25.606 16.188-48.934 37.008-64.076 32.125-23.359 59.356-17.394 100.728-17.394h747.429c41.376 0 68.608-5.956 100.728 17.394 20.814 15.141 34.248 38.464 36.919 64.076 4.116 39.501-14.681 60.042-35.41 95.847l-373.715 645.548c-20.653 35.679-29.126 62.181-65.318 78.275-23.484 10.44-50.352 10.445-73.837 0zM512.045 811.929c-9.247 4.112 2.955-5.060 23.607-40.735l373.715-645.548c20.729-35.805 22.642-51.024 23.696-40.913 8.219 5.976-5.925 0-47.303 0h-747.429c-41.373 0-55.531 5.983-47.303 0 1.054-10.113 2.966 5.107 23.696 40.913l373.715 645.548c20.651 35.675 32.849 44.844 23.607 40.735zM512.045 607.279c-25.095 0-45.439-20.344-45.439-45.439v0-181.755c0-25.095 20.344-45.439 45.439-45.439v0c25.095 0 45.439 20.344 45.439 45.439v0 181.755c0 25.095-20.344 45.439-45.439 45.439v0zM512.045 243.769c-25.095 0-45.439-20.344-45.439-45.439v0c0-25.095 20.344-45.439 45.439-45.439v0h0.445c25.095 0 45.439 20.344 45.439 45.439v0c0 25.095-20.344 45.439-45.439 45.439v0z" />
<glyph unicode="&#xe936;" glyph-name="chart" data-tags="chart" d="M363.104 959.918c-78.197 0-123.806 2.388-168.312-20.289-35.025-17.846-63.529-46.35-81.375-81.375-22.631-44.479-20.289-90.056-20.289-168.203v-484.103c0-78.195-2.389-123.696 20.289-168.203 17.846-35.025 46.354-63.53 81.375-81.375 44.506-22.679 90.115-20.289 168.312-20.289h297.792c78.195 0 123.804-2.389 168.312 20.289 35.022 17.846 63.529 46.353 81.375 81.375 22.678 44.508 20.289 90.008 20.289 168.203v484.103c0 78.197 2.39 123.806-20.289 168.312-17.845 35.021-46.35 63.42-81.375 81.266-44.507 22.677-90.117 20.289-168.312 20.289zM363.104 866.872h297.792c78.195 0 110.869-2.386 126.098-10.145 17.518-8.926 31.758-23.163 40.687-40.687 7.759-15.228 10.145-47.792 10.145-125.989v-484.103c0-78.195-2.385-110.76-10.145-125.989-8.928-17.522-23.166-31.759-40.687-40.687-15.229-7.76-47.903-10.145-126.098-10.145h-297.792c-78.197 0-110.87 2.386-126.098 10.145-17.524 8.929-31.761 23.169-40.687 40.687-7.759 15.229-10.145 47.794-10.145 125.989v484.103c0 78.197 2.386 110.761 10.145 125.989 8.926 17.52 23.168 31.761 40.687 40.687 15.228 7.759 47.901 10.145 126.098 10.145zM512 680.67c-0.011 0-0.024 0-0.036 0-25.679 0-46.5-20.796-46.542-46.464v-465.454c0-0.011 0-0.024 0-0.036 0-25.704 20.838-46.542 46.542-46.542 0.013 0 0.025 0 0.038 0h-0.002c0.011 0 0.024 0 0.036 0 25.704 0 46.542 20.838 46.542 46.542 0 0.013 0 0.025 0 0.038v-0.002 465.45c-0.041 25.672-20.863 46.469-46.542 46.469-0.013 0-0.025 0-0.038 0h0.002zM698.202 494.578c-0.011 0-0.024 0-0.036 0-25.704 0-46.542-20.838-46.542-46.542 0-0.013 0-0.025 0-0.038v0.002-279.248c0-0.011 0-0.024 0-0.036 0-25.704 20.838-46.542 46.542-46.542 0.013 0 0.025 0 0.038 0h-0.002c25.673 0.041 46.469 20.863 46.469 46.542 0 0.013 0 0.025 0 0.038v-0.002 279.248c0 0.011 0 0.024 0 0.036 0 25.679-20.796 46.5-46.464 46.542h-0.004zM325.798 401.422c-25.647-0.041-46.427-20.821-46.469-46.464v-186.206c0-0.011 0-0.024 0-0.036 0-25.679 20.796-46.5 46.464-46.542h0.004c0.011 0 0.024 0 0.036 0 25.704 0 46.542 20.838 46.542 46.542 0 0.013 0 0.025 0 0.038v-0.002 186.202c-0.041 25.673-20.863 46.469-46.542 46.469-0.013 0-0.025 0-0.038 0h0.002z" />
<glyph unicode="&#xe937;" glyph-name="server" data-tags="server" d="M301.635 913.407c-73.469 0-116.499 2.147-159.269-18.545-33.813-16.358-61.898-42.573-80.543-75.18-23.585-41.246-24.49-84.338-29.544-157.633l-32.181-466.898c0.221-0.658 0.345-0.988 0.471-1.318l-0.108 0.319c-0.009-0.771-0.455-1.408-0.455-2.182 0-115.124 94.325-209.45 209.45-209.45h605.077c109.327 0 197.241 85.926 206.086 193.086 0.886 2.711 1.56 5.889 1.893 9.167l0.016 0.197c0.086 2.461 1.454 4.518 1.454 7 0 0.544-0.269 1.003-0.275 1.546 0.048 0.322 0.112 0.884 0.167 1.448l0.014 0.189-32.179 466.898c-5.055 73.294-5.959 116.386-29.544 157.633-18.645 32.605-46.726 58.823-80.543 75.18-42.77 20.692-85.799 18.545-159.269 18.545zM301.635 820.317h420.718c73.47 0 103.882-2.091 118.724-9.273 16.916-8.183 30.944-21.325 40.272-37.635 8.186-14.315 12.399-44.521 17.454-117.815l19.726-286.084c-31.152 18.437-65.397 31.908-103.997 31.908h-605.077c-38.601 0-72.845-13.471-103.997-31.908l19.726 286.084c5.055 73.294 9.268 103.501 17.454 117.815 9.326 16.31 23.359 29.453 40.272 37.635 14.844 7.181 45.256 9.273 118.724 9.273zM209.456 308.33h605.077c64.669 0 115.946-51.389 116.179-115.997l0.093-0.636c-0.168-64.669-51.561-116.089-116.272-116.089h-605.077c-64.711 0-116.105 51.419-116.27 116.089l0.091 0.636c0.233 64.609 51.51 115.997 116.179 115.997zM232.727 238.513c-25.706 0-46.545-20.839-46.545-46.545v0c0-25.706 20.839-46.545 46.545-46.545v0h0.455c25.706 0 46.545 20.839 46.545 46.545v0c0 25.706-20.839 46.545-46.545 46.545v0zM511.993 238.513c-25.706 0-46.545-20.839-46.545-46.545v0c0-25.706 20.839-46.545 46.545-46.545v0h279.266c25.706 0 46.545 20.839 46.545 46.545v0c0 25.706-20.839 46.545-46.545 46.545v0z" />
<glyph unicode="&#xe938;" glyph-name="columns" data-tags="columns" d="M297.055 959.889c-86.008 0-136.212 2.647-185.164-22.295-38.522-19.628-69.854-50.96-89.483-89.483-24.942-48.952-22.295-99.158-22.295-185.164v-429.918c0-86.009-2.644-136.214 22.295-185.164 19.628-38.525 50.962-69.857 89.483-89.483 48.952-24.944 99.158-22.295 185.164-22.295h429.918c86.009 0 136.212-2.645 185.164 22.295 38.523 19.627 69.857 50.959 89.483 89.483 24.941 48.952 22.295 99.155 22.295 185.164v429.918c0 86.008 2.648 136.212-22.295 185.164-19.626 38.522-50.959 69.854-89.483 89.483-48.952 24.94-99.155 22.295-185.164 22.295h-214.96zM297.055 857.507h163.769v-819.045h-163.769c-86.008 0-121.926 2.663-138.673 11.197-19.271 9.818-34.874 25.422-44.691 44.691-8.536 16.756-11.197 52.664-11.197 138.673v429.918c0 86.008 2.663 121.926 11.197 138.673 9.819 19.27 25.422 34.873 44.691 44.691 16.749 8.534 52.666 11.197 138.673 11.197zM563.205 857.507h163.769c86.009 0 121.917-2.661 138.673-11.197 19.27-9.818 34.874-25.421 44.691-44.691 8.534-16.748 11.197-52.666 11.197-138.673v-429.918c0-86.009-2.661-121.918-11.197-138.673-9.818-19.271-25.421-34.874-44.691-44.691-16.756-8.538-52.664-11.197-138.673-11.197h-163.769z" />
<glyph unicode="&#xe939;" glyph-name="add-device" data-tags="add-device" d="M371.853 959.982c-0.013 0-0.028 0-0.044 0-24.745 0-44.81-20.041-44.847-44.778v-52.887c-51.975-0.188-97.732 1.831-132.483-15.876-34.804-17.734-63.18-46.109-80.913-80.913-17.707-34.751-15.688-80.508-15.876-132.483h-52.884c-24.74-0.037-44.781-20.101-44.781-44.847 0-0.015 0-0.031 0-0.046v0.002c0-0.013 0-0.028 0-0.044 0-24.745 20.041-44.81 44.778-44.847h48.617v-143.87h-48.613c-24.717-0.037-44.744-20.064-44.781-44.778v-0.003c0-0.013 0-0.028 0-0.044 0-24.745 20.041-44.81 44.778-44.847h48.617v-11.168c0-78.488-2.317-123.98 20.146-168.067 17.734-34.805 46.112-63.18 80.913-80.913 34.751-17.708 80.508-15.688 132.483-15.876v-52.884c0.037-24.74 20.101-44.781 44.847-44.781 0.015 0 0.031 0 0.046 0h-0.002c0.013 0 0.028 0 0.044 0 24.745 0 44.81 20.041 44.847 44.778v48.617h190.512v-48.613c0.037-24.74 20.101-44.781 44.847-44.781 0.015 0 0.031 0 0.046 0h-0.002c0.013 0 0.028 0 0.044 0 24.745 0 44.81 20.041 44.847 44.778v52.887c51.974 0.191 97.731-1.832 132.483 15.876 34.801 17.734 63.179 46.112 80.913 80.913 22.464 44.087 20.146 89.579 20.146 168.067v11.168h48.613c24.74 0.037 44.781 20.101 44.781 44.847 0 0.015 0 0.031 0 0.046v-0.002c-0.037 24.717-20.064 44.744-44.778 44.781h-48.617v143.87h48.613c24.74 0.037 44.781 20.101 44.781 44.847 0 0.015 0 0.031 0 0.046v-0.002c0 0.013 0 0.028 0 0.044 0 24.745-20.041 44.81-44.778 44.847h-52.887c-0.188 51.975 1.832 97.731-15.876 132.483-17.733 34.8-46.108 63.179-80.913 80.913-34.752 17.706-80.509 15.688-132.483 15.876v52.884c-0.037 24.74-20.101 44.781-44.847 44.781-0.015 0-0.031 0-0.046 0h0.002c-0.013 0-0.028 0-0.044 0-24.745 0-44.81-20.041-44.847-44.778v-48.617h-190.512v48.613c-0.037 24.74-20.101 44.781-44.847 44.781-0.015 0-0.031 0-0.046 0h0.002zM362.546 776.915h298.907c78.488 0 111.572-2.314 127.446-10.402 17.936-9.139 32.465-23.666 41.606-41.606 8.088-15.873 10.402-48.956 10.402-127.446v-298.907c0-78.488-2.314-111.463-10.402-127.337-9.141-17.939-23.667-32.574-41.606-41.716-15.874-8.088-48.958-10.402-127.446-10.402h-298.907c-78.49 0-111.464 2.314-127.337 10.402-17.94 9.141-32.578 23.78-41.716 41.716-8.088 15.874-10.402 48.849-10.402 127.337v298.907c0 78.49 2.314 111.573 10.402 127.446 9.139 17.937 23.778 32.466 41.716 41.606 15.873 8.088 48.847 10.402 127.337 10.402zM514.332 625.518c22.765 0 41.22-18.454 41.22-41.22v-267.928c0-22.765-18.454-41.22-41.22-41.22-22.763 0-41.217 18.454-41.217 41.22v267.928c0 22.765 18.454 41.22 41.217 41.22zM339.15 450.338c0 22.765 18.454 41.22 41.22 41.22h267.926c22.765 0 41.22-18.456 41.22-41.22s-18.454-41.217-41.22-41.217h-267.926c-22.765 0-41.22 18.454-41.22 41.217z" />
<glyph unicode="&#xe93a;" glyph-name="arrow-narrow-up-right" data-tags="arrow-narrow-up-right" d="M369.828 959.97c-47.126 0-85.328-38.203-85.328-85.328v0c0-47.126 38.203-85.328 85.328-85.328v0h362.812l-707.625-707.625c-15.437-15.441-24.985-36.769-24.985-60.33s9.548-44.889 24.985-60.33v0c15.441-15.437 36.769-24.985 60.33-24.985s44.889 9.548 60.33 24.985l707.625 707.625v-362.812c0-47.126 38.203-85.328 85.328-85.328v0c47.126 0 85.328 38.203 85.328 85.328v0 568.8c-0.613 5.33-1.608 10.133-2.986 14.769l0.153-0.603c-0.552 4.63-1.37 8.756-2.473 12.764l0.14-0.598c-0.457 2.68-0.92 4.818-1.463 6.925l0.13-0.592c-4.531 10.761-10.779 19.949-18.499 27.665v0c-15.439 15.442-36.768 24.995-60.33 24.999v0z" />
<glyph unicode="&#xe93b;" glyph-name="drag" data-tags="drag" d="M895.96 384.004c-69.928 0-127.99-58.062-127.99-127.99s58.062-127.99 127.99-127.99c69.928 0 127.99 58.062 127.99 127.99s-58.062 127.99-127.99 127.99zM511.988 384.004c-69.928 0-127.99-58.062-127.99-127.99s58.062-127.99 127.99-127.99c69.928 0 127.99 58.062 127.99 127.99s-58.062 127.99-127.99 127.99zM128.016 384.004c-69.928 0-127.99-58.061-127.99-127.99s58.062-127.99 127.99-127.99c69.928 0 127.99 58.061 127.99 127.99s-58.062 127.99-127.99 127.99zM895.96 767.976c-69.929 0-127.99-58.062-127.99-127.99s58.061-127.99 127.99-127.99c69.929 0 127.99 58.062 127.99 127.99s-58.061 127.99-127.99 127.99zM511.988 767.976c-69.929 0-127.99-58.062-127.99-127.99s58.061-127.99 127.99-127.99c69.929 0 127.99 58.062 127.99 127.99s-58.061 127.99-127.99 127.99zM128.016 767.976c-69.929 0-127.99-58.061-127.99-127.99s58.061-127.99 127.99-127.99c69.929 0 127.99 58.061 127.99 127.99s-58.061 127.99-127.99 127.99z" />
</font>
</defs>
</svg>
